<?xml version="1.0" standalone="no"?>
<!DOCTYPE svg PUBLIC "-//W3C//DTD SVG 1.1//EN" "http://www.w3.org/Graphics/SVG/1.1/DTD/svg11.dtd" >
<svg xmlns="http://www.w3.org/2000/svg" xmlns:xlink="http://www.w3.org/1999/xlink" version="1.1">
<metadata>
Created by FontForge 20170731 at Wed Mar 11 03:44:04 2015
 By ,,,
Copyright (c) 2015 Perxis.com. All Rights Reserved.
</metadata>
<defs>
<font id="Linearicons" horiz-adv-x="2048" >
  <font-face 
    font-family="Linearicons"
    font-weight="400"
    font-stretch="normal"
    units-per-em="2048"
    panose-1="0 0 0 0 0 0 0 0 0 0"
    ascent="1638"
    descent="-410"
    x-height="1226"
    cap-height="1638"
    bbox="-0.380952 -104 2048.39 1949"
    underline-thickness="0"
    underline-position="0"
    unicode-range="U+0001-FFFD"
  />
<missing-glyph horiz-adv-x="0" 
 />
    <glyph glyph-name="uniE600" unicode="building" 
d="M2035 700l-904 999q-21 24 -48.5 36t-58.5 12v0v0q-31 0 -58.5 -12t-48.5 -36l-904 -999q-14 -16 -13 -37t17 -35q7 -7 16 -10.5t18 -3.5q11 0 21 4.5t17 12.5l218 241v-821q0 -63 45 -108t109 -45h1126q64 0 109 45t45 108v821l218 -241q14 -15 35 -16.5t37 13.5
q16 14 17 35t-13 37v0zM1229 0h-410v461q0 21 15 36t36 15h308q21 0 36 -15t15 -36v-461v0zM1638 51q0 -21 -15 -36t-36 -15h-256v461q0 63 -45 108t-108 45h-308q-63 0 -108 -45t-45 -108v-461h-256q-21 0 -36 15t-15 36v934l583 646q7 7 14.5 10.5t16.5 3.5t16.5 -3.5
t14.5 -10.5l583 -646v-934v0z" />
    <glyph glyph-name="uniE601" unicode="building&#x32;" 
d="M51 717q-9 0 -18 3t-16 10q-16 14 -17 35.5t13 36.5l904 1000q21 23 48.5 35.5t58.5 12.5v0v0q31 0 58.5 -12.5t48.5 -35.5l904 -1000q14 -15 13 -36.5t-17 -35.5t-37 -13t-35 17l-904 999q-7 7 -14.5 10.5t-16.5 3.5t-16.5 -3.5t-14.5 -10.5l-904 -999q-7 -9 -17 -13
t-21 -4v0zM1587 -102h-1126q-64 0 -109 45t-45 108v819q0 22 15 37t36 15q22 0 37 -15t15 -37v-819q0 -21 15 -36t36 -15h1126q21 0 36 15t15 36v819q0 22 15 37t37 15q21 0 36 -15t15 -37v-819q0 -63 -45 -108t-109 -45v0z" />
    <glyph glyph-name="uniE602" unicode="building&#x33;" 
d="M51 717q-9 0 -18 3t-16 10q-16 14 -17 35.5t13 36.5l904 1000q21 23 48.5 35.5t58.5 12.5v0v0q31 0 58.5 -12.5t48.5 -35.5l904 -1000q14 -15 13 -36.5t-17 -35.5t-37 -13t-35 17l-904 999q-7 7 -14.5 10.5t-16.5 3.5t-16.5 -3.5t-14.5 -10.5l-904 -999q-7 -9 -17 -13
t-21 -4v0zM1587 -102h-409q-22 0 -37 15t-15 36v358h-204v-358q0 -21 -15 -36t-37 -15h-409q-64 0 -109 45t-45 108v819q0 22 15 37t36 15q22 0 37 -15t15 -37v-819q0 -21 15 -36t36 -15h358v358q0 22 15 37t36 15h308q21 0 36 -15t15 -37v-358h358q21 0 36 15t15 36v819
q0 22 15 37t37 15q21 0 36 -15t15 -37v-819q0 -63 -45 -108t-109 -45v0z" />
    <glyph glyph-name="uniE603" unicode="building&#x34;" 
d="M51 717q-9 0 -18 3t-16 10q-16 14 -17 35.5t13 36.5l904 1000q21 23 48.5 35.5t58.5 12.5v0v0q31 0 58.5 -12.5t48.5 -35.5l303 -336v121q0 10 3.5 19.5t10.5 16.5q8 8 17.5 11.5t19.5 3.5h205q21 0 36 -15t15 -36v-460l294 -325q14 -15 13 -36.5t-17 -35.5t-37 -13
t-35 17l-307 339q-7 7 -10.5 16t-3.5 19v428h-102l1 -203q0 -16 -8.5 -29.5t-23.5 -18.5q-15 -6 -30.5 -2.5t-26.5 15.5l-393 435q-7 7 -14.5 10.5t-16.5 3.5t-16.5 -3.5t-14.5 -10.5l-904 -999q-7 -9 -17 -13t-21 -4v0zM1587 -102h-409q-22 0 -37 15t-15 36v358h-204v-358
q0 -21 -15 -36t-37 -15h-409q-64 0 -109 45t-45 108v819q0 22 15 37t36 15q22 0 37 -15t15 -37v-819q0 -21 15 -36t36 -15h358v358q0 22 15 37t36 15h308q21 0 36 -15t15 -37v-358h358q21 0 36 15t15 36v819q0 22 15 37t37 15q21 0 36 -15t15 -37v-819q0 -63 -45 -108
t-109 -45v0z" />
    <glyph glyph-name="uniE604" unicode="building&#x35;" 
d="M51 717q-9 0 -18 3t-16 10q-16 14 -17 35.5t13 36.5l904 1000q21 23 48.5 35.5t58.5 12.5v0v0q31 0 58.5 -12.5t48.5 -35.5l303 -336v121q0 10 3.5 19.5t10.5 16.5q8 8 17.5 11.5t19.5 3.5h205q21 0 36 -15t15 -36v-460l294 -325q14 -15 13 -36.5t-17 -35.5t-37 -13
t-35 17l-307 339q-7 7 -10.5 16t-3.5 19v428h-102l1 -203q0 -16 -8.5 -29.5t-23.5 -18.5q-15 -6 -30.5 -2.5t-26.5 15.5l-393 435q-7 7 -14.5 10.5t-16.5 3.5t-16.5 -3.5t-14.5 -10.5l-904 -999q-7 -9 -17 -13t-21 -4v0zM1587 -102h-1126q-64 0 -109 45t-45 108v819
q0 22 15 37t36 15q22 0 37 -15t15 -37v-819q0 -21 15 -36t36 -15h1126q21 0 36 15t15 36v819q0 22 15 37t37 15q21 0 36 -15t15 -37v-819q0 -63 -45 -108t-109 -45v0z" />
    <glyph glyph-name="uniE605" unicode="building&#x36;" 
d="M1485 -102h-307q-22 0 -37 15t-15 36v358h-204v-358q0 -21 -15 -36t-37 -15h-307q-63 0 -108 45t-45 108v627l-116 -128q-14 -15 -35 -16t-37 13l-205 183q-8 7 -12 16t-5 19q0 11 3 20.5t10 16.5l904 1000q21 23 48.5 35.5t58.5 12.5t58.5 -12.5t48.5 -35.5l904 -1000
q7 -7 10 -16.5t3 -20.5q-1 -10 -5 -19t-12 -16l-205 -183q-16 -14 -37 -13t-35 16l-116 128v-627q0 -63 -45 -108t-108 -45v0zM1229 0h256q21 0 36 15t15 36v760q0 16 9 29t24 19t30.5 2t25.5 -16l171 -188l128 115l-869 961q-7 7 -14.5 10.5t-16.5 3.5t-16.5 -3.5
t-14.5 -10.5l-869 -961l128 -115l171 188q10 12 25.5 16t30.5 -2t24 -19t9 -29v-760q0 -21 15 -36t36 -15h256v358q0 22 15 37t36 15h308q21 0 36 -15t15 -37v-358v0z" />
    <glyph glyph-name="uniE606" unicode="bathtub" 
d="M1690 -102h-103q-21 0 -36 15t-15 36t15 36t36 15h103q21 0 36 -15t15 -36t-15 -36t-36 -15v0zM461 -102h-103q-21 0 -36 15t-15 36t15 36t36 15h103q21 0 36 -15t15 -36t-15 -36t-36 -15v0zM2048 666q0 63 -45 108t-109 45h-1587v973q0 21 15 36t36 15h154q11 0 27 -6.5
t24 -14.5l13 -13q-36 -49 -51.5 -106t-11.5 -114.5t28 -112t68 -99.5q8 -7 17 -11t20 -4q10 0 19.5 4t16.5 11l398 399q15 15 15 36t-15 36q-47 47 -108 72.5t-127 25.5q-54 0 -104 -16.5t-93 -47.5l-12 12q-23 23 -58 37.5t-66 14.5h-154q-63 0 -108 -45t-45 -109v-973h-51
q-64 0 -109 -45t-45 -108q0 -50 29 -89.5t73 -55.5v-265q0 -53 20.5 -99.5t55 -81.5t81 -55t99.5 -20h1332q53 0 99.5 20t81 55t55 81.5t20.5 99.5v265q44 16 73 55.5t29 89.5v0zM967 1808l-317 -318q-21 34 -29.5 71.5t-4.5 75.5t20.5 74t45.5 65q33 32 75 49.5t88 17.5
q33 0 64 -9t58 -26v0zM1690 102h-1332q-63 0 -108 45t-45 109v256h1638v-256q0 -64 -45 -109t-108 -45v0zM1894 614h-1740q-22 0 -37 15t-15 37q0 21 15 36t37 15h1740q22 0 37 -15t15 -36q0 -22 -15 -37t-37 -15v0zM1024 1280q0 -21 -15 -36t-36 -15t-36 15t-15 36t15 36
t36 15t36 -15t15 -36v0zM1024 1485q0 -21 -15 -36t-36 -15t-36 15t-15 36t15 36t36 15t36 -15t15 -36v0zM1229 1485q0 -21 -15 -36t-36 -15q-22 0 -37 15t-15 36t15 36t37 15q21 0 36 -15t15 -36v0zM1229 1280q0 -21 -15 -36t-36 -15q-22 0 -37 15t-15 36t15 36t37 15
q21 0 36 -15t15 -36v0zM1434 1485q0 -21 -15 -36t-37 -15q-21 0 -36 15t-15 36t15 36t36 15q22 0 37 -15t15 -36v0zM1024 1075q0 -21 -15 -36t-36 -15t-36 15t-15 36t15 36t36 15t36 -15t15 -36v0zM1434 1280q0 -21 -15 -36t-37 -15q-21 0 -36 15t-15 36t15 36t36 15
q22 0 37 -15t15 -36v0zM1229 1075q0 -21 -15 -36t-36 -15q-22 0 -37 15t-15 36t15 36t37 15q21 0 36 -15t15 -36v0z" />
    <glyph glyph-name="uniE607" unicode="hygiene" 
d="M154 512q-22 0 -37 15t-15 36v307q0 22 15 37t37 15q21 0 36 -15t15 -37v-307q0 -21 -15 -36t-36 -15v0zM358 512q-21 0 -36 15t-15 36v307q0 22 15 37t36 15q22 0 37 -15t15 -37v-307q0 -21 -15 -36t-37 -15v0zM563 512q-21 0 -36 15t-15 36v307q0 22 15 37t36 15
t36 -15t15 -37v-307q0 -21 -15 -36t-36 -15v0zM768 512q-21 0 -36 15t-15 36v307q0 22 15 37t36 15t36 -15t15 -37v-307q0 -21 -15 -36t-36 -15v0zM1997 102h-1843q-64 0 -109 45t-45 109t45 109t109 45h1843q21 0 36 -15t15 -37q0 -21 -15 -36t-36 -15h-1843q-22 0 -37 -15
t-15 -36t15 -36t37 -15h1843q21 0 36 -15t15 -36q0 -22 -15 -37t-36 -15v0zM973 512q-21 0 -36 15t-15 36v307q0 22 15 37t36 15t36 -15t15 -37v-307q0 -21 -15 -36t-36 -15v0zM922 1024h-615q-63 0 -119 24t-98 66t-66 98t-24 119q0 64 24 120t66 97.5t98 65.5t119 24h51
q22 0 37 -15t15 -36t-15 -36t-37 -15q-21 0 -36 -15t-15 -36t15 -36t36 -15h564q42 0 79.5 -16.5t65 -44t43.5 -65t16 -79.5q0 -43 -16 -80t-43.5 -65t-65 -44t-79.5 -16v0zM207 1510q-47 -27 -76 -74t-29 -105q0 -42 16.5 -79.5t44 -65t65 -44t79.5 -16.5h615q42 0 72 30
t30 73q0 42 -30 72t-72 30h-564q-63 0 -108 45t-45 109q0 6 0.5 12.5t1.5 12.5v0z" />
    <glyph glyph-name="uniE608" unicode="bed" 
d="M1792 102h-102q-22 0 -37 15t-15 37q0 21 15 36t37 15h102q21 0 36 -15t15 -36q0 -22 -15 -37t-36 -15v0zM256 102h-102q-22 0 -37 15t-15 37q0 21 15 36t37 15h102q21 0 36 -15t15 -36q0 -22 -15 -37t-36 -15v0zM1911 779l-243 727q-15 46 -54.5 80.5t-87.5 46.5
q-2 8 -3.5 14.5t-4.5 13.5q-17 52 -42.5 66t-41.5 14h-410q-10 0 -23.5 -4t-27.5 -18q-14 14 -28 18t-23 4h-410q-16 0 -41.5 -14t-43.5 -66q-2 -7 -4 -13.5t-3 -14.5q-48 -12 -87.5 -46.5t-55.5 -80.5l-242 -727q-15 -44 -25 -106.5t-10 -109.5v-205q0 -63 45 -108t109 -45
h1638q64 0 109 45t45 108v205q0 47 -10.5 109.5t-24.5 106.5v0zM1040 1638h378q5 -12 10.5 -38.5t5.5 -63.5t-5.5 -63.5t-10.5 -38.5h-378q-5 12 -10.5 38.5t-5.5 63.5t5.5 63.5t10.5 38.5v0zM528 1638h378q5 -12 10.5 -38.5t5.5 -63.5t-5.5 -63.5t-10.5 -38.5h-378
q-5 12 -10.5 38.5t-5.5 63.5t5.5 63.5t10.5 38.5v0zM375 1474q4 12 13.5 23.5t21.5 20.5q1 -30 5.5 -57.5t11.5 -49.5q18 -52 43.5 -66t41.5 -14h410q9 0 23 4t28 18q14 -14 27.5 -18t23.5 -4h410q16 0 41.5 14t42.5 66q8 22 12.5 49.5t5.5 57.5q12 -9 21.5 -20.5
t13.5 -23.5l82 -245h-1360l82 245v0zM259 1126h1428l126 -379q3 -8 5.5 -16t4.5 -17q-8 1 -15.5 2t-15.5 1h-1638q-8 0 -16 -1t-15 -2q2 9 4.5 17t4.5 16l127 379v0zM1843 358q0 -21 -15 -36t-36 -15h-1638q-22 0 -37 15t-15 36v205q0 21 15 36t37 15h1638q21 0 36 -15
t15 -36v-205v0z" />
    <glyph glyph-name="uniE609" unicode="couch" 
d="M461 0h-103q-21 0 -36 15t-15 36t15 36t36 15h103q21 0 36 -15t15 -36t-15 -36t-36 -15v0zM1690 0h-103q-21 0 -36 15t-15 36t15 36t36 15h103q21 0 36 -15t15 -36t-15 -36t-36 -15v0zM1842 1224q-2 96 -18 175.5t-45 143.5t-71.5 112.5t-99.5 84.5q-53 32 -114.5 52
t-133.5 31.5t-156 15.5t-180 4t-180 -4t-156 -15.5t-133.5 -31.5t-114.5 -52q-57 -36 -99.5 -84.5t-71.5 -112.5t-45 -143.5t-18 -175.5q-44 -9 -82 -32t-65.5 -56t-43 -75t-15.5 -88q0 -47 15.5 -88.5t43 -74.5t65 -56t81.5 -32v-466q0 -64 45 -109t108 -45h1332
q63 0 108 45t45 109v466q44 9 81.5 32t65 56t43 74.5t15.5 88.5q0 46 -15.5 88t-43 75t-65.5 56t-82 32v0zM494 1652q45 28 99.5 45.5t120.5 27t143 13t167 3.5t167 -3.5t143 -13t120.5 -27t99.5 -45.5q45 -27 78.5 -67t56.5 -93t35.5 -120t15.5 -149q-44 -9 -81 -31.5
t-64.5 -56t-43 -75t-15.5 -87.5v-154h-1024v154q0 46 -15.5 87.5t-43 75t-64.5 56t-81 31.5q3 82 15.5 149t35.5 120t56.5 93t78.5 67v0zM512 717h1024v-154q0 -21 -15 -36t-36 -15h-922q-21 0 -36 15t-15 36v154v0zM1792 819q-21 0 -36 -15t-15 -36v-512q0 -21 -15 -36
t-36 -15h-1332q-21 0 -36 15t-15 36v512q0 21 -15 36t-36 15q-64 0 -109 45t-45 109q0 63 45 108t109 45t109 -45t45 -108v-410q0 -63 45 -108t108 -45h922q63 0 108 45t45 108v410q0 63 45 108t109 45t109 -45t45 -108q0 -64 -45 -109t-109 -45v0zM1587 1331h-51
q-42 0 -79.5 16t-65.5 44t-44 65.5t-16 79.5v51q0 21 -15 36t-36 15t-36 -15t-15 -36v-51q0 -42 -16 -79.5t-44 -65.5t-65.5 -44t-79.5 -16t-79.5 16t-65.5 44t-44 65.5t-16 79.5v51q0 21 -15 36t-36 15t-36 -15t-15 -36v-51q0 -42 -16 -79.5t-44 -65.5t-65.5 -44t-79.5 -16
h-51q-21 0 -36 -15t-15 -36t15 -36t36 -15h51q42 0 79.5 -16t65.5 -44t44 -65.5t16 -79.5v-51q0 -21 15 -36t36 -15t36 15t15 36v51q0 42 16 79.5t44 65.5t65.5 44t79.5 16t79.5 -16t65.5 -44t44 -65.5t16 -79.5v-51q0 -21 15 -36t36 -15t36 15t15 36v51q0 42 16 79.5
t44 65.5t65.5 44t79.5 16h51q21 0 36 15t15 36t-15 36t-36 15v0zM768 1194q-17 25 -39 47t-47 39q25 17 47 39t39 47q17 -25 39 -47t47 -39q-25 -17 -47 -39t-39 -47v0zM1280 1194q-17 25 -39 47t-47 39q25 17 47 39t39 47q17 -25 39 -47t47 -39q-25 -17 -47 -39t-39 -47v0z
" />
    <glyph glyph-name="uniE60A" unicode="chair" 
d="M1638 563v51q0 33 -20.5 81t-44.5 84l-91 137q-19 28 -30 74t-7 79l68 616q6 52 -9 99.5t-48 84.5t-78.5 57t-97.5 20h-614q-52 0 -97.5 -20t-79.5 -57q-33 -37 -47.5 -84.5t-8.5 -99.5l68 -616q4 -33 -7.5 -79t-29.5 -74l-91 -137q-25 -36 -45.5 -84t-20.5 -81v-51
q0 -42 21 -77t55 -55q-13 -28 -26.5 -69.5t-24.5 -100t-18 -136t-7 -176.5q0 -21 15 -36t36 -15q22 0 37 15t15 36q0 110 8.5 190t21 135t26 87.5t21.5 48.5h127v-256q0 -22 15 -37t37 -15q21 0 36 15t15 37v256h512v-256q0 -22 15 -37t36 -15t36 15t15 37v256h127
q9 -16 22.5 -48.5t25.5 -87.5t21 -135t9 -190q0 -21 15 -36t36 -15v0v0q21 0 36 15t15 36q0 99 -7 176.5t-18 136t-24.5 100t-26.5 69.5q35 20 55.5 55t20.5 77v0zM1485 512h-1024q-21 0 -36 15t-15 36t15 36t36 15h1024q21 0 36 -15t15 -36t-15 -36t-36 -15v0zM549 859
q28 43 43.5 107t10.5 114l-69 617q-3 29 5 56t27 47q18 21 44 32t56 11h614q30 0 55.5 -11t44.5 -32q18 -20 26.5 -47t4.5 -56l-68 -617q-6 -50 9.5 -114t44.5 -107l91 -137q1 -1 2 -2.5t2 -2.5h-3.5h-3.5h-1024h-3.5h-3.5q1 1 2 2.5t2 2.5l91 137v0zM1229 922h-512
q-21 0 -36 15t-15 36t15 36t36 15h512q21 0 36 -15t15 -36t-15 -36t-36 -15v0zM1280 1434h-51q-43 0 -80 16t-65 43.5t-44 65t-16 79.5v52q0 21 -15 36t-36 15t-36 -15t-15 -36v-52q0 -42 -16.5 -79.5t-44 -65t-65 -43.5t-79.5 -16h-51q-22 0 -37 -15t-15 -37q0 -21 15 -36
t37 -15h51q42 0 79.5 -16t65 -44t44 -65t16.5 -80v-51q0 -21 15 -36t36 -15t36 15t15 36v51q0 43 16 80t44 65t65 44t80 16h51q21 0 36 15t15 36q0 22 -15 37t-36 15v0zM973 1296q-17 26 -39 47.5t-48 38.5q26 17 48 39t39 48q17 -26 39 -48t47 -39q-25 -17 -47 -38.5
t-39 -47.5v0z" />
    <glyph glyph-name="uniE60B" unicode="building&#x37;" 
d="M922 922h102v-103h-102v103v0zM1126 922h103v-103h-103v103v0zM1331 922h103v-103h-103v103v0zM1536 922h102v-103h-102v103v0zM922 614h102v-102h-102v102v0zM1126 614h103v-102h-103v102v0zM1331 614h103v-102h-103v102v0zM1536 614h102v-102h-102v102v0zM922 307h102
v-102h-102v102v0zM1126 307h103v-102h-103v102v0zM1331 307h103v-102h-103v102v0zM1536 307h102v-102h-102v102v0zM1792 1229h-51v256q0 10 -4 19.5t-11 16.5l-190 190v183q0 22 -15 37t-36 15t-36 -15t-15 -37v-183l-190 -190q-7 -7 -11 -16.5t-4 -19.5v-51h-205v256
q0 21 -15 36t-36 15h-819q-22 0 -37 -15t-15 -36v-1741q0 -21 15 -36t37 -15h1638q21 0 36 15t15 36v1229q0 21 -15 36t-36 15v0zM1331 1464l154 153l153 -153v-235h-102v153q0 22 -15 37t-36 15h-154v30v0zM1434 1331v-102h-410v102h410v0zM717 1178v-1178h-512v1638h717
v-409h-154q-21 0 -36 -15t-15 -36v0zM1741 0h-922v1126h922v-1126v0zM717 1536h102v-205h-102v205v0zM512 1536h102v-205h-102v205v0zM307 1536h103v-205h-103v205v0zM307 1229h103v-205h-103v205v0zM512 1229h102v-205h-102v205v0zM307 922h103v-205h-103v205v0zM512 922
h102v-205h-102v205v0zM307 614h103v-204h-103v204v0zM512 614h102v-204h-102v204v0zM307 307h103v-205h-103v205v0zM512 307h102v-205h-102v205v0z" />
    <glyph glyph-name="uniE60C" unicode="apartment" 
d="M1434 1331h102v-102h-102v102v0zM1434 1126h102v-102h-102v102v0zM1434 922h102v-103h-102v103v0zM1434 717h102v-103h-102v103v0zM1434 307h102v-102h-102v102v0zM1434 512h102v-102h-102v102v0zM614 1331h103v-102h-103v102v0zM614 1126h103v-102h-103v102v0zM614 922
h103v-103h-103v103v0zM614 717h103v-103h-103v103v0zM614 307h103v-102h-103v102v0zM614 512h103v-102h-103v102v0zM410 1331h102v-102h-102v102v0zM410 1126h102v-102h-102v102v0zM410 922h102v-103h-102v103v0zM410 717h102v-103h-102v103v0zM410 307h102v-102h-102v102v0
zM410 512h102v-102h-102v102v0zM819 1331h103v-102h-103v102v0zM819 1126h103v-102h-103v102v0zM819 922h103v-103h-103v103v0zM819 717h103v-103h-103v103v0zM819 307h103v-102h-103v102v0zM819 512h103v-102h-103v102v0zM1894 0h-51v1382q0 59 -38 112t-94 72l-482 161
v167q0 13 -5.5 23.5t-15.5 17.5q-10 8 -21.5 10t-23.5 -2l-926 -277q-57 -17 -96 -69.5t-39 -111.5v-1485h-51q-21 0 -36 -15t-15 -36t15 -36t36 -15h1843q22 0 37 15t15 36t-15 36t-37 15v0zM1679 1469q24 -9 43 -35t19 -52v-1382h-512v1619l450 -150v0zM205 1485
q0 25 18.5 50t42.5 33l860 258v-1826h-921v1485v0z" />
    <glyph glyph-name="uniE60D" unicode="pencil" 
d="M1956 1854q-43 43 -98.5 66t-116.5 23t-116.5 -23t-99.5 -66l-1305 -1306q-4 -4 -7 -8.5t-5 -10.5l-205 -563q-5 -14 -2 -28.5t14 -24.5q7 -8 16.5 -11.5t19.5 -3.5q5 0 9 0.5t9 2.5l563 204q5 2 10 5t9 7l1305 1306q43 43 66 98.5t23 116.5t-23 117t-66 99v0zM586 198
l-449 -164l163 450l1134 1133l286 -286l-1134 -1133v0zM1884 1495l-92 -91l-286 286l92 91q28 29 65 44.5t78 15.5q40 0 77 -15.5t66 -44.5q28 -28 43.5 -65t15.5 -78q0 -40 -15.5 -77t-43.5 -66v0z" />
    <glyph glyph-name="uniE60E" unicode="pencil&#x32;" 
d="M51 -102q-10 0 -19.5 3.5t-16.5 11.5q-11 10 -14 24.5t2 28.5l205 563q2 6 5 10.5t7 8.5l1382 1383q15 15 36.5 15t36.5 -15l358 -359q15 -15 15 -36t-15 -36l-1382 -1383q-4 -4 -9 -7t-10 -5l-563 -204q-5 -2 -9 -2.5t-9 -0.5v0zM300 484l-163 -450l449 164l1338 1338
l-286 286l-1338 -1338v0z" />
    <glyph glyph-name="uniE60F" unicode="pen" 
d="M2004 1902q-21 21 -50 32t-64 11q-29 0 -63 -7.5t-72.5 -22.5t-82 -37.5t-92.5 -52.5q-30 32 -87 72t-131 46q-59 5 -114.5 -18.5t-106.5 -73.5q-54 -54 -95 -112.5t-72 -116t-54 -111t-40 -96.5q-12 -30 -25 -60.5t-21 -38.5q-2 -3 -10 -6.5t-21 7.5q-15 14 -35.5 14
t-35.5 -15t-15 -36t15 -36q6 -6 21.5 -16.5t35.5 -16.5q9 -2 17 -3t16 -1q10 0 19.5 1.5t18.5 4.5q-10 -10 -20.5 -21t-21.5 -22q-135 -141 -272 -303t-251.5 -324t-194 -314t-99.5 -272q-2 -12 1.5 -24t12.5 -20q7 -8 16.5 -11.5t19.5 -3.5h4.5h4.5q50 9 108 29t124 51.5
t139 74.5t153 97q72 48 146.5 103.5t151 117.5t155 129.5t156.5 140.5q76 70 148.5 141.5t140 143t129.5 141.5t118 138q41 51 86.5 111t86.5 123t75 126.5t52 120.5q23 72 17 126t-42 90v0zM1214 1778q34 35 69 50.5t71 12.5q43 -3 79 -27t60 -47q-19 -13 -38.5 -27
t-39.5 -29q-54 -41 -112.5 -88.5t-118.5 -100.5t-121.5 -110.5t-123.5 -118.5q8 17 17 37.5t19 45.5q16 41 37.5 91t50 103t65.5 106.5t86 101.5v0zM311 385l176 -177q-52 -34 -101.5 -63t-95.5 -53t-88 -42t-80 -31q12 38 30.5 80.5t42 88.5t53 95t63.5 102v0zM1123 716
q-72 -67 -143 -128.5t-140 -118t-136 -107.5t-130 -95l-205 204q51 73 109.5 149.5t124.5 155.5t138.5 160t150.5 163q91 95 180.5 181t174.5 161t165 138t152 113l230 -230q-55 -80 -127 -170t-157.5 -185t-183 -194t-203.5 -197v0zM1932 1717q-12 -36 -32.5 -78t-48.5 -89
l-199 199q75 45 135.5 69.5t102.5 24.5q21 0 30 -5.5t12 -8.5q18 -17 12.5 -52.5t-12.5 -59.5v0z" />
    <glyph glyph-name="uniE610" unicode="pencil&#x33;" 
d="M1997 1331q0 106 -40.5 199.5t-110 163t-162.5 109.5t-199 40q-58 0 -113.5 -12.5t-107.5 -37.5q-4 -2 -7.5 -4.5t-6.5 -5.5v0l-1081 -1081q-6 -6 -10 -13.5t-5 -15.5l-102 -717q-2 -12 2 -23.5t12 -19.5q7 -8 16.5 -11.5t19.5 -3.5h4h4l716 103q9 1 16.5 4.5t12.5 9.5
l1081 1081v0v0l1 1v0q3 3 5.5 6.5t4.5 7.5q25 52 37.5 107t12.5 113v0zM1894 1331q0 -44 -9 -86.5t-27 -81.5l-118 -118q-4 110 -47.5 207t-116.5 170t-170 117t-208 48l118 118q40 18 82.5 27t86.5 9q84 0 159 -32.5t130.5 -88t87.5 -130t32 -159.5v0zM205 307l44 304
q14 2 29 2.5t29 0.5q95 0 179 -36t146.5 -98.5t99 -146.5t36.5 -179q0 -15 -1 -29.5t-3 -29.5l-303 -43q0 52 -20.5 98.5t-55 81.5t-81 55t-99.5 20v0zM1088 1476q22 4 44.5 6.5t45.5 2.5q81 0 154.5 -27t132.5 -74l-798 -798q-34 29 -73.5 52.5t-82.5 40t-89 26.5t-94 11
l760 760v0zM740 514l797 797q48 -59 74.5 -132.5t26.5 -154.5q0 -23 -2 -45.5t-6 -44.5l-760 -760q-2 49 -11.5 95t-26.5 88.5t-40 82t-52 74.5v0zM191 204q3 0 6.5 0.5t7.5 0.5q63 0 108 -45t45 -109v-6.5v-7.5l-195 -28l28 195v0z" />
    <glyph glyph-name="uniE611" unicode="eraser" 
d="M2019 1238q-2 12 -6 23.5t-10 21.5q-9 16 -21 29.5t-27 22.5h-0.5t-0.5 1q-1 0 -1.5 0.5l-1.5 1.5q-7 4 -15.5 8t-18.5 6q-1 1 -3 1.5t-4 1.5l-621 155q-12 3 -25.5 4.5t-28.5 1.5q-46 0 -92 -14.5t-78 -39.5l-760 -591q-39 -30 -76.5 -83.5t-53.5 -100.5l-140 -420
q-10 -30 -7.5 -60t17.5 -57t39 -45t54 -26l621 -155q12 -3 25.5 -4.5t28.5 -1.5q36 0 73 9t68 26q7 3 14 7.5t15 10.5l760 591q39 31 76.5 84.5t53.5 100.5l140 420q7 21 8.5 38.5t-2.5 32.5v0zM1235 1413q8 0 15.5 -0.5t14.5 -2.5l617 -154l-757 -590q-19 -14 -48.5 -22.5
t-58.5 -8.5q-9 0 -16 0.5t-14 2.5l-618 154l758 590q18 14 48 22.5t59 8.5v0zM135 199q-5 8 -5.5 17t2.5 19l140 420q7 21 28 32.5t43 5.5v0v0l620 -155q10 -2 17 -7.5t12 -13.5q4 -8 4.5 -17t-2.5 -18l-140 -420q-7 -21 -28 -32.5t-43 -6.5l-105 27v0v0l-515 128
q-9 3 -16.5 8.5t-11.5 12.5v0zM1680 643l-708 -550l119 357q11 33 40 73.5t56 62.5l708 550l-119 -357q-11 -33 -40 -74t-56 -62v0z" />
    <glyph glyph-name="uniE612" unicode="pencil&#x34;" 
d="M358 205q-10 0 -19 3.5t-17 11.5q-10 10 -13.5 24.5t1.5 28.5l205 564q2 5 5 9.5t7 8.5l1075 1076q15 15 36.5 15t36.5 -15l358 -359q15 -15 15 -36t-15 -36l-1075 -1075q-4 -4 -9 -7t-10 -5l-563 -205q-4 -2 -8.5 -2.5t-9.5 -0.5v0zM607 791l-163 -449l449 163
l1031 1031l-286 286l-1031 -1031v0zM1792 -102h-1638q-64 0 -109 45t-45 108v1639q0 63 45 108t109 45h1024q21 0 36 -15t15 -36t-15 -36t-36 -15h-1024q-22 0 -37 -15t-15 -36v-1639q0 -21 15 -36t37 -15h1638q21 0 36 15t15 36v1024q0 21 15 36t36 15q22 0 37 -15t15 -36
v-1024q0 -63 -45 -108t-109 -45v0z" />
    <glyph glyph-name="uniE613" unicode="pencil&#x35;" 
d="M1956 1854q-43 43 -98.5 66t-116.5 23t-116.5 -23t-99.5 -66l-998 -999q-4 -4 -7 -8.5t-5 -9.5l-205 -564q-5 -14 -1.5 -28.5t13.5 -24.5q8 -8 17 -11.5t19 -3.5q5 0 9.5 0.5t8.5 2.5l563 205q5 2 10 5t9 7l998 998q43 43 66 98.5t23 116.5t-23 117t-66 99v0zM893 505
l-449 -163l163 449l827 826l286 -286l-827 -826v0zM1884 1495l-92 -91l-286 286l92 91q28 29 65 44.5t78 15.5q40 0 77 -15.5t66 -44.5q28 -28 43.5 -65t15.5 -78q0 -40 -15.5 -77t-43.5 -66v0zM1792 -102h-1638q-64 0 -109 45t-45 108v1639q0 63 45 108t109 45h1024
q21 0 36 -15t15 -36t-15 -36t-36 -15h-1024q-22 0 -37 -15t-15 -36v-1639q0 -21 15 -36t37 -15h1638q21 0 36 15t15 36v1024q0 21 15 36t36 15q22 0 37 -15t15 -36v-1024q0 -63 -45 -108t-109 -45v0z" />
    <glyph glyph-name="uniE614" unicode="feather" 
d="M51 -102h-1h-1q-21 1 -35.5 16.5t-13.5 35.5q5 141 26 274t58 258t90.5 242.5t123.5 225.5q57 89 124.5 172t145.5 159.5t166 146t186 132.5q93 60 184.5 107.5t176 84.5t160 64.5t136.5 46.5q70 21 134 36.5t118 26t97 15.5t71 5q21 0 36 -15t15 -37q0 -46 -19 -90.5
t-46 -83t-56 -69t-48 -49.5q-30 -31 -72.5 -56.5t-92.5 -47.5t-104.5 -42t-109.5 -39l-68 -24t-67 -25q54 5 106.5 8t98.5 4.5t82 1.5h58h10.5h3.5q14 0 26 -7.5t19 -19.5q6 -13 5 -27t-9 -26q-41 -59 -86.5 -111.5t-96.5 -99t-107 -87t-118 -76.5q-59 -33 -124.5 -49
t-145.5 -16q-48 0 -95.5 4.5t-94.5 9.5q-45 6 -91.5 10t-92.5 4q-83 0 -149.5 -18t-125.5 -58q-106 -71 -171.5 -214.5t-102 -288.5t-49.5 -254.5t-13 -112.5q-1 -20 -16 -33.5t-35 -13.5v0zM1933 1838q-67 -8 -171.5 -31.5t-231.5 -67t-269.5 -108.5t-285.5 -157
q-73 -47 -149.5 -105t-151 -128t-145.5 -153t-134 -179q35 22 71.5 38t75.5 26t82 15.5t89 5.5q50 0 99 -4.5t97 -10.5q46 -5 90 -9t88 -4q66 0 119.5 12.5t99.5 38.5q46 27 88.5 56t81.5 61.5t74.5 68.5t68.5 76q-48 -1 -110 -4t-127.5 -8.5t-129 -14t-112.5 -21.5
q-16 -5 -31 0.5t-24 18.5q-10 13 -10 29t9 29q23 36 63 64.5t90.5 52.5t109 45.5t120.5 43.5q50 17 100.5 35.5t95.5 38t82 41t62 46.5q22 22 63 67.5t63 95.5v0z" />
    <glyph glyph-name="uniE615" unicode="feather&#x32;" 
d="M51 -102h-1h-2q-20 1 -34.5 16.5t-13.5 35.5q5 141 26 274t58 258t90.5 242.5t123.5 225.5q57 89 124.5 172t145.5 159.5t166 146t186 132.5q93 60 184.5 107.5t176 84.5t160 64.5t136.5 46.5q70 21 134 36.5t118 26t97 15.5t71 5q21 0 36 -15t15 -37q0 -21 -15 -36
t-36 -15q-45 0 -148.5 -18t-243 -61t-303 -114t-327.5 -176q-72 -47 -147.5 -104t-149 -126t-144 -150t-133.5 -175q44 27 94.5 44.5t107.5 25.5q74 9 149.5 5.5t150.5 -9.5q56 -5 110 -8.5t105 -1t99 12t91 31.5q72 35 134 85t107.5 95.5t72 78t27.5 33.5q12 17 33 20
t38 -10t20 -34t-9 -38q-3 -3 -32 -39t-79 -85.5t-118 -103.5t-148 -94q-53 -26 -109.5 -38t-114.5 -15t-117.5 0.5t-118.5 8.5q-71 6 -139.5 9.5t-132 -4.5t-121 -32t-106.5 -73q-92 -92 -149 -233.5t-89 -275t-43.5 -230.5t-11.5 -99q-1 -20 -16 -33.5t-35 -13.5v0z
M1178 1331q-15 0 -28 8.5t-19 22.5q-9 19 -1 39t27 28q76 33 189.5 70t225.5 68t202.5 51t119.5 20q22 0 37 -15t15 -36t-15 -36t-37 -15q-20 0 -102.5 -19t-188.5 -48t-217 -64.5t-188 -69.5q-5 -2 -10 -3t-10 -1v0z" />
    <glyph glyph-name="uniE616" unicode="feather&#x33;" 
d="M461 410h-2.5h-2.5q-21 2 -34.5 18.5t-11.5 37.5q9 96 29.5 188t52 178.5t73.5 167t96 155.5q43 62 94 119t108.5 109.5t122 101t135.5 91.5q122 75 243.5 126t226 82.5t184.5 45t119 13.5q22 0 37 -15t15 -36q0 -72 -50 -134t-79 -91q-23 -23 -55 -42.5t-69.5 -36.5
t-78 -31.5t-81.5 -28.5q-2 -1 -4.5 -2t-4.5 -2q52 3 94.5 3.5t64.5 0.5h7.5h2.5q15 0 27 -7.5t18 -20.5q7 -12 6 -26.5t-9 -25.5q-31 -44 -65 -83.5t-72 -74t-80 -65t-89 -57.5q-44 -25 -94.5 -37t-110.5 -12q-36 0 -71.5 3t-69.5 7q-33 4 -67 7t-67 3q-60 0 -107 -13
t-89 -41q-1 0 -2.5 -1t-2.5 -2q-28 -14 -54 -39.5t-49.5 -62.5t-44 -85t-38.5 -106q-28 -91 -39 -162t-11 -72q-2 -19 -17 -32t-34 -13v0zM1823 1734q-50 -8 -122 -25.5t-157 -46.5t-179.5 -72t-190.5 -101q-53 -33 -108 -72.5t-110 -88t-107.5 -105t-100.5 -123.5
q45 21 94.5 31.5t106.5 10.5q37 0 73.5 -3.5t71.5 -7.5q34 -4 66 -7t64 -3q47 0 84.5 9t70.5 27q60 35 111.5 76t95.5 91q-35 -1 -77.5 -3t-85.5 -6t-83.5 -10.5t-73.5 -14.5q-15 -4 -30 1t-25 18q-9 13 -9 29t8 30q19 27 49 49t68 40.5t82 34.5t90 32q74 26 143 53.5
t103 62.5q12 12 36 38t42 56v0zM775 212q0 1 -29 43.5t-29 102.5q0 28 -14.5 53.5t-41.5 45.5q-17 12 -38 9t-34 -20q-12 -17 -9 -38t20 -34q9 -6 11.5 -10.5t2.5 -5.5t-6 -8.5t-25 -17.5q-24 -12 -56 -18.5t-66 -6.5q-35 0 -67 6.5t-55 18.5q-20 10 -26 17.5t-6 8.5t2 4.5
t8 8.5q16 14 17.5 35t-12.5 37t-35 17.5t-37 -12.5q-28 -24 -36.5 -48t-8.5 -42q0 -60 -29 -102.5t-29 -43.5q-42 -45 -42 -109.5t42 -110.5q3 -3 21.5 -18.5t56 -32.5t95.5 -30t141 -13t141 13t95.5 30t56 32.5t21.5 18.5q42 46 42 110.5t-42 109.5v0zM699 62
q0 -1 -53.5 -31.5t-184.5 -30.5q-127 0 -181.5 29.5t-57.5 32.5q-15 16 -15 40.5t15 40.5q2 2 23 29.5t39 72.5q2 -1 4.5 -2.5t4.5 -2.5q34 -17 77.5 -26t90.5 -9t90 9t78 26q2 1 4 2.5t5 2.5q18 -45 39 -72.5t22 -29.5q15 -16 15 -40.5t-15 -40.5v0z" />
    <glyph glyph-name="uniE617" unicode="pen&#x32;" 
d="M1628 696q-100 134 -179 288t-136 294t-90.5 249t-42.5 153q23 21 36 50.5t13 61.5q0 64 -45 109t-109 45q-23 0 -50.5 -4.5t-51.5 -19.5q-24 15 -52 19.5t-51 4.5q-63 0 -108 -45t-45 -109q0 -32 13 -61.5t36 -50.5q-10 -44 -43.5 -153t-90 -249t-135.5 -294t-180 -288
q-11 -15 -9.5 -34t14.5 -33q28 -28 72.5 -78.5t88.5 -111t80 -125t47 -121.5q-31 -13 -62.5 -41t-63.5 -70q-31 -41 -49.5 -75t-19.5 -35q-6 -12 -5.5 -25.5t7.5 -24.5t18.5 -17.5t25.5 -6.5h1024q13 0 24.5 6.5t18.5 17.5t8 24.5t-5 25.5q-1 1 -20 35t-49 75
q-32 42 -63.5 70t-63.5 41q12 56 48 121t80 125.5t88 111t72 78.5q14 14 15.5 33t-10.5 34v0zM973 717q21 0 36 -15t15 -36q0 -22 -15 -37t-36 -15t-36 15t-15 37q0 21 15 36t36 15v0zM1395 0h-844q28 41 59.5 71.5t55.5 30.5h614q24 0 55.5 -30.5t59.5 -71.5v0zM1393 517
q-34 -45 -61 -87t-47 -81.5t-33 -75.5t-18 -68h-522q-6 32 -19 68t-32.5 75.5t-46.5 81.5t-61 87q-37 49 -71 89t-57 64q56 79 105 163t90 166.5t74 160t58 143.5q26 68 49.5 136.5t40.5 128.5q25 87 27.5 111.5t0.5 32.5q-2 11 -8.5 20.5t-16.5 15.5q-12 6 -19 18t-7 26
q0 21 15 36t36 15q30 0 39 -4l9 -4q3 -4 3.5 -18t0.5 -25v-982q-45 -15 -74 -54.5t-29 -89.5q0 -64 45 -109t109 -45q63 0 108 45t45 109q0 50 -28.5 89.5t-73.5 54.5v982q0 11 0.5 25t3.5 18l9 4t38 4q21 0 36 -15t15 -36q0 -14 -6.5 -26t-18.5 -18q-10 -6 -16.5 -15.5
t-8.5 -20.5q-2 -8 0 -32.5t27 -111.5q18 -60 41 -128.5t49 -136.5q26 -66 59 -143.5t74 -160t89.5 -166.5t105.5 -163q-23 -24 -57.5 -64t-70.5 -89v0z" />
    <glyph glyph-name="uniE618" unicode="pen&#x2d;add" 
d="M1321 696q-100 134 -179 288t-136 294t-90.5 249t-42.5 153q23 21 36 50.5t13 61.5q0 64 -45 109t-109 45q-23 0 -51 -4.5t-51 -19.5q-24 15 -52 19.5t-51 4.5q-63 0 -108 -45t-45 -109q0 -32 12.5 -61.5t35.5 -50.5q-9 -44 -42.5 -153t-90 -249t-136 -294t-179.5 -288
q-11 -15 -10 -34t15 -33q28 -28 72 -78.5t88.5 -111t80.5 -125t47 -121.5q-31 -13 -63 -41t-63 -70q-31 -41 -49.5 -75t-19.5 -35q-6 -12 -5.5 -25.5t7.5 -24.5t18.5 -17.5t25.5 -6.5h1024q13 0 24.5 6.5t18.5 17.5t7.5 24.5t-5.5 25.5q0 1 -19 35t-49 75q-32 42 -63.5 70
t-63.5 41q12 56 47.5 121t80 125.5t88.5 111t72 78.5q14 14 15 33t-10 34v0zM666 717q21 0 36 -15t15 -36q0 -22 -15 -37t-36 -15q-22 0 -37 15t-15 37q0 21 15 36t37 15v0zM1087 0h-843q28 41 59.5 71.5t54.5 30.5h615q23 0 54.5 -30.5t59.5 -71.5v0zM1085 517
q-33 -45 -60 -87t-47 -81.5t-33 -75.5t-19 -68h-521q-6 32 -19 68t-33 75.5t-46.5 81.5t-60.5 87q-37 49 -71.5 89t-56.5 64q56 79 104.5 163t89.5 166.5t74.5 160t58.5 143.5q26 68 49.5 136.5t40.5 128.5q25 87 27 111.5t1 32.5q-2 11 -9 20.5t-16 15.5q-12 6 -19 18
t-7 26q0 21 15 36t36 15q29 0 38.5 -4l9.5 -4q2 -4 2.5 -18t0.5 -25v-982q-44 -15 -73 -54.5t-29 -89.5q0 -64 45 -109t109 -45q63 0 108 45t45 109q0 50 -29 89.5t-73 54.5v982q0 11 0.5 25t3.5 18l9 4t38 4q21 0 36 -15t15 -36q0 -14 -7 -26t-18 -18q-10 -6 -16.5 -15.5
t-9.5 -20.5q-1 -8 1 -32.5t27 -111.5q18 -60 41 -128.5t49 -136.5q25 -66 58.5 -143.5t74.5 -160t89.5 -166.5t104.5 -163q-22 -24 -56.5 -64t-71.5 -89v0zM1894 1536h-256v256q0 21 -15 36t-36 15t-36 -15t-15 -36v-256h-256q-21 0 -36 -15t-15 -36t15 -36t36 -15h256v-256
q0 -22 15 -37t36 -15t36 15t15 37v256h256q22 0 37 15t15 36t-15 36t-37 15v0z" />
    <glyph glyph-name="uniE619" unicode="pen&#x2d;remove" 
d="M1321 696q-100 134 -179 288t-136 294t-90.5 249t-42.5 153q23 21 36 50.5t13 61.5q0 64 -45 109t-109 45q-23 0 -51 -4.5t-51 -19.5q-24 15 -52 19.5t-51 4.5q-63 0 -108 -45t-45 -109q0 -32 12.5 -61.5t35.5 -50.5q-9 -44 -42.5 -153t-90 -249t-136 -294t-179.5 -288
q-11 -15 -10 -34t15 -33q28 -28 72 -78.5t88.5 -111t80.5 -125t47 -121.5q-31 -13 -63 -41t-63 -70q-31 -41 -49.5 -75t-19.5 -35q-6 -12 -5.5 -25.5t7.5 -24.5t18.5 -17.5t25.5 -6.5h1024q13 0 24.5 6.5t18.5 17.5t7.5 24.5t-5.5 25.5q0 1 -19 35t-49 75q-32 42 -63.5 70
t-63.5 41q12 56 47.5 121t80 125.5t88.5 111t72 78.5q14 14 15 33t-10 34v0zM666 717q21 0 36 -15t15 -36q0 -22 -15 -37t-36 -15q-22 0 -37 15t-15 37q0 21 15 36t37 15v0zM1087 0h-843q28 41 59.5 71.5t54.5 30.5h615q23 0 54.5 -30.5t59.5 -71.5v0zM1085 517
q-33 -45 -60 -87t-47 -81.5t-33 -75.5t-19 -68h-521q-6 32 -19 68t-33 75.5t-46.5 81.5t-60.5 87q-37 49 -71.5 89t-56.5 64q56 79 104.5 163t89.5 166.5t74.5 160t58.5 143.5q26 68 49.5 136.5t40.5 128.5q25 87 27 111.5t1 32.5q-2 11 -9 20.5t-16 15.5q-12 6 -19 18
t-7 26q0 21 15 36t36 15q29 0 38.5 -4l9.5 -4q2 -4 2.5 -18t0.5 -25v-982q-44 -15 -73 -54.5t-29 -89.5q0 -64 45 -109t109 -45q63 0 108 45t45 109q0 50 -29 89.5t-73 54.5v982q0 11 0.5 25t3.5 18l9 4t38 4q21 0 36 -15t15 -36q0 -14 -7 -26t-18 -18q-10 -6 -16.5 -15.5
t-9.5 -20.5q-1 -8 1 -32.5t27 -111.5q18 -60 41 -128.5t49 -136.5q25 -66 58.5 -143.5t74.5 -160t89.5 -166.5t104.5 -163q-22 -24 -56.5 -64t-71.5 -89v0zM1894 1434h-614q-21 0 -36 15t-15 36t15 36t36 15h614q22 0 37 -15t15 -36t-15 -36t-37 -15v0z" />
    <glyph glyph-name="uniE61A" unicode="bezier" 
d="M1894 921q-17 0 -33.5 -4t-31.5 -11l-293 293v183q0 22 -15 37t-36 15h-184l-292 292q7 15 11 31.5t4 34.5q0 64 -45 109t-109 45q-63 0 -108 -45t-45 -109t45 -109t108 -45q18 0 35 4t32 11l138 -138q-44 11 -90.5 16t-95 4t-98.5 -7.5t-102 -18.5q-61 -15 -118.5 -36
t-110 -45t-99.5 -50t-86 -51q-4 2 -9 3t-10 1h-205q-21 0 -36 -15t-15 -36v-205q0 -21 15 -36t36 -15h205q21 0 36 15t15 36v151q80 53 188.5 106.5t230.5 81t251 15.5t252 -90v-161q0 -22 15 -37t36 -15h161q80 -126 89.5 -260.5t-20.5 -258.5t-83.5 -229t-97.5 -173h-151
q-22 0 -37 -15t-15 -36v-205q0 -21 15 -36t37 -15h204q22 0 37 15t15 36v205q0 5 -1 9.5t-3 9.5q25 39 51 85.5t50 99t44.5 110t35.5 119.5q13 51 19.5 101.5t7 98.5t-4.5 94.5t-16 91.5l139 -139q-7 -15 -11 -32t-4 -35q0 -63 45 -108t108 -45q64 0 108.5 45t44.5 108
q0 64 -44.5 109t-108.5 45v0zM205 1126h-103v103h103v-103v0zM1331 0h-102v102h102v-102v0zM819 1792q0 21 15 36t36 15q22 0 37 -15t15 -36t-15 -36t-37 -15q-21 0 -36 15t-15 36v0zM1331 1331h103v-102h-103v102v0zM1894 717q-21 0 -35.5 15t-14.5 35q0 21 14.5 36
t35.5 15t36 -15t15 -36q0 -20 -15 -35t-36 -15v0z" />
    <glyph glyph-name="uniE61B" unicode="pen&#x33;" 
d="M1982 1316l-615 615q-12 12 -30 14t-33 -7l-819 -512q-11 -7 -17.5 -18.5t-6.5 -24.5q0 -1 -8 -79.5t-50 -242.5q-20 -75 -51.5 -177.5t-79.5 -232t-113.5 -287t-153.5 -342.5q-7 -15 -4 -31t14 -27q7 -8 16.5 -11.5t19.5 -3.5q6 0 11.5 1t10.5 4q185 88 342.5 153.5
t287 113.5t232 79.5t177.5 51.5q164 42 242.5 50t79.5 8q13 0 24.5 6t18.5 18l512 819q9 15 7 33t-14 30v0zM1404 511q-37 -3 -121.5 -16.5t-222 -50.5t-329.5 -104t-444 -176l688 687q25 -15 54 -23.5t60 -8.5q45 0 85 17.5t69.5 47t46.5 69t17 85.5q0 45 -17 84.5
t-46.5 69.5t-69.5 47t-85 17t-85 -17t-69.5 -47t-47 -69.5t-17.5 -84.5q0 -32 8.5 -60.5t24.5 -53.5l-688 -688q110 252 176.5 444t103.5 329t50.5 222t16.5 122l762 476l557 -556l-477 -762v0zM973 1038q0 48 34 82t82 34t82 -34t34 -82t-34 -82t-82 -34t-82 34t-34 82v0z
" />
    <glyph glyph-name="uniE61C" unicode="blog" 
d="M1060 702l-256 256q-10 10 -23.5 13.5t-27.5 -0.5l-512 -154q-13 -4 -22 -13.5t-13 -23.5l-204 -819q-4 -13 -0.5 -26t13.5 -22q7 -8 16.5 -11.5t19.5 -3.5h6.5t6.5 1l819 205q13 3 23 12.5t13 22.5l154 512q4 13 0.5 27t-13.5 24v0zM830 196l-612 -153l279 279
q15 -7 31.5 -11t34.5 -4q64 0 109 45t45 109q0 63 -45 108t-109 45q-63 0 -108 -45t-45 -108q0 -18 3.5 -34.5t11.5 -31.5l-279 -279l153 611l454 137l213 -213l-136 -455v0zM512 461q0 21 15 36t36 15t36 -15t15 -36t-15 -36t-36 -15t-36 15t-15 36v0zM1382 717
q-21 0 -36 15t-15 36q0 95 -36 179t-98.5 146.5t-146.5 99t-180 36.5q-21 0 -36 15t-15 36t15 36t36 15q117 0 219.5 -44t179 -120.5t121 -179.5t44.5 -219q0 -21 -15 -36t-37 -15v0zM1690 717q-22 0 -37 15t-15 36q0 159 -60 299t-164.5 244t-244.5 164.5t-299 60.5
q-21 0 -36 15t-15 36t15 36t36 15q88 0 171.5 -16.5t162 -49t149.5 -80t133 -109.5q62 -61 109.5 -132.5t79.5 -149.5t49 -162t17 -171q0 -21 -15 -36t-36 -15v0zM1997 717q-21 0 -36 15t-15 36q0 222 -85 418t-231 342t-341.5 230.5t-418.5 84.5q-21 0 -36 15t-15 36
q0 22 15 37t36 15q60 0 118.5 -6t116 -17.5t113.5 -29t111 -40.5q52 -22 102 -49t97 -58.5t91 -68t84 -76.5q41 -41 77 -85t67.5 -90.5t58.5 -96.5t49 -103q23 -54 40.5 -110t29 -113.5t17.5 -116t6 -118.5q0 -21 -15 -36t-36 -15v0z" />
    <glyph glyph-name="uniE61D" unicode="brush" 
d="M51 -102q-18 0 -32.5 11.5t-17.5 29.5q-4 18 5 34.5t26 22.5q32 13 56 39.5t43 62t35 78t32 87.5q21 61 45 121t59 109q42 60 99 90t127 30q23 0 48 -3t51 -10q46 -12 85 -40t66 -70q25 -41 35.5 -89t4.5 -98q-9 -74 -55.5 -146.5t-138.5 -130t-233.5 -93t-339.5 -35.5v0
zM528 511q-47 0 -81 -19.5t-60 -56t-47.5 -88.5t-44.5 -118q-21 -59 -44 -117t-56 -106q57 5 109 14t98 22t86.5 30t74.5 38q67 40 106.5 93t46.5 112q9 66 -23.5 118.5t-90.5 67.5q-20 5 -39 7.5t-35 2.5v0zM977 617v0v0q-65 0 -120 26.5t-90 75.5q-38 53 -45.5 124
t17.5 146q21 64 70 123.5t130 121.5q35 27 74 53t81.5 52t88 52.5t92.5 53.5q83 48 171 100t176 111.5t173.5 127t165.5 147.5q15 15 36 15t36 -15q8 -8 11.5 -17.5t3.5 -19.5q0 -9 -3.5 -18.5t-11.5 -17.5q-79 -79 -147 -165t-127 -174t-111 -175.5t-101 -171.5
q-27 -47 -53.5 -92t-52.5 -87.5t-52 -82t-52 -74.5q-62 -81 -122 -130t-124 -70q-29 -9 -57.5 -14t-56.5 -5v0zM1664 1562q-43 -29 -86 -56t-85.5 -52.5t-84.5 -49.5t-82 -48q-89 -51 -170 -99.5t-146 -97t-110.5 -98.5t-63.5 -104q-18 -53 -14 -99t28 -79q21 -29 54 -44.5
t73 -15.5v0v0q20 0 40.5 3.5t41.5 10.5q54 18 104 63.5t98.5 111t97 146t100.5 169.5q23 41 47.5 83t50 84.5t52.5 85.5t55 86v0z" />
    <glyph glyph-name="uniE61E" unicode="brush&#x32;" 
d="M358 205q-10 0 -19.5 4t-16.5 11t-11 16.5t-4 19.5t4 19.5t11 16.5t16.5 11t19.5 4q11 0 20 -4t17 -11q7 -7 11 -16.5t4 -19.5t-4 -19.5t-11 -16.5q-8 -7 -17 -11t-20 -4v0zM1909 979l-828 828q-21 22 -49 33.5t-59 11.5t-59 -11.5t-50 -33.5l-521 -521
q-41 -41 -51.5 -105.5t15.5 -117.5l165 -329q3 -7 4 -14t-2 -13q-3 -5 -8.5 -9.5t-13.5 -5.5q-4 -1 -40.5 -11.5t-88.5 -32.5t-111 -56t-107 -83q-51 -50 -78 -115.5t-27 -137.5t27 -137.5t78 -115.5q51 -51 116.5 -78t136.5 -27v0v0q72 0 137.5 27t116.5 78q48 48 82 107
t56 111t32.5 88.5t11.5 39.5q2 7 7.5 16t17.5 9q4 0 8.5 -1.5t9.5 -3.5l329 -164q18 -9 39 -14t43 -5q40 0 77.5 14.5t63.5 40.5l520 521q45 45 45 108.5t-45 108.5v0zM1316 313q-11 -11 -29.5 -17.5t-38.5 -6.5q-10 0 -19.5 2t-17.5 5l-329 165q-15 7 -31 11t-32 4
q-45 0 -79.5 -28.5t-45.5 -74.5q0 -1 -9 -32t-28 -77t-48 -97.5t-70 -91.5q-36 -36 -82.5 -55.5t-98.5 -19.5q-51 0 -97.5 19.5t-83.5 55.5q-36 36 -55.5 83t-19.5 98t19.5 98t55.5 83q41 41 92.5 70t97 48t77 28t32.5 9q31 7 54.5 26t36.5 46q12 27 11 57.5t-15 58.5
l-164 329q-12 23 -6.5 55t23.5 50l96 96l900 -900l-96 -97v0zM1837 834l-352 -352l-901 900l353 353q7 7 16 10.5t20 3.5q10 0 19.5 -3.5t16.5 -10.5l828 -828q15 -15 15 -36.5t-15 -36.5v0z" />
    <glyph glyph-name="uniE61F" unicode="paint&#x33;" 
d="M1121 1119q-9 42 -36.5 78.5t-70.5 65.5q-41 27 -90.5 43.5t-104.5 22.5v105h51q22 0 37 15t15 36v205q0 21 -15 36t-37 15h-204q-22 0 -37 -15t-15 -36v-205q0 -21 15 -36t37 -15h51v-105q-55 -6 -104.5 -22.5t-90.5 -43.5q-43 -29 -70.5 -65.5t-36.5 -78.5
q-47 -14 -77.5 -54.5t-30.5 -91.5v-922q0 -63 45 -108t109 -45h614q64 0 109 45t45 108v922q0 51 -30.5 91.5t-77.5 54.5v0zM717 1638h102v-102h-102v102v0zM768 1229q82 0 148 -29t93 -74h-482q27 45 93 74t148 29v0zM1075 0h-614q-21 0 -36 15t-15 36v922q0 21 15 36
t36 15h614q21 0 36 -15t15 -36v-154h-256q-21 0 -36 -15t-15 -36v-512q0 -21 15 -36t36 -15h256v-154q0 -21 -15 -36t-36 -15v0zM1126 717v-410h-204v410h204v0zM1075 1536q-10 0 -19.5 4t-16.5 11t-11 16.5t-4 19.5t4 19.5t11 16.5q7 8 16.5 11.5t19.5 3.5t19.5 -3.5
t16.5 -11.5q8 -7 11.5 -16.5t3.5 -19.5t-3.5 -19.5t-11.5 -16.5q-7 -7 -16.5 -11t-19.5 -4v0zM1280 1638q-10 0 -19.5 4t-16.5 11q-7 8 -11 17t-4 20q0 10 4 19.5t11 16.5t16.5 11t19.5 4t19.5 -4t16.5 -11t11 -16.5t4 -19.5q0 -11 -4 -20t-11 -17q-7 -7 -16.5 -11t-19.5 -4
v0zM1485 1741q-10 0 -19.5 4t-16.5 11q-8 7 -11.5 16.5t-3.5 19.5t3.5 19.5t11.5 16.5q7 7 16.5 11t19.5 4t19.5 -4t16.5 -11t11 -16.5t4 -19.5t-4 -19.5t-11 -16.5t-16.5 -11t-19.5 -4v0zM1485 1536q-10 0 -19.5 4t-16.5 11q-8 7 -11.5 16.5t-3.5 19.5t3.5 19.5t11.5 16.5
q7 8 16.5 11.5t19.5 3.5t19.5 -3.5t16.5 -11.5q7 -7 11 -16.5t4 -19.5t-4 -19.5t-11 -16.5t-16.5 -11t-19.5 -4v0zM1280 1434q-10 0 -19.5 3.5t-16.5 11.5q-7 7 -11 16.5t-4 19.5t4 19.5t11 16.5t16.5 11t19.5 4t19.5 -4t16.5 -11t11 -16.5t4 -19.5t-4 -19.5t-11 -16.5
q-7 -8 -16.5 -11.5t-19.5 -3.5v0zM1485 1331q-10 0 -19.5 4t-16.5 11q-8 7 -11.5 16.5t-3.5 19.5q0 11 3.5 20t11.5 17q7 7 16.5 11t19.5 4t19.5 -4t16.5 -11q7 -8 11 -17t4 -20q0 -10 -4 -19.5t-11 -16.5t-16.5 -11t-19.5 -4v0zM1690 1638q-11 0 -20 4t-17 11q-7 8 -11 17
t-4 20q0 10 4 19.5t11 16.5q8 7 17 11t20 4q10 0 19.5 -4t16.5 -11t11 -16.5t4 -19.5q0 -11 -4 -20t-11 -17q-7 -7 -16.5 -11t-19.5 -4v0zM1690 1843q-11 0 -20 4t-17 11q-7 7 -11 16.5t-4 19.5q0 11 4 20t11 17q8 7 17 11t20 4q10 0 19.5 -4t16.5 -11q7 -8 11 -17t4 -20
q0 -10 -4 -19.5t-11 -16.5t-16.5 -11t-19.5 -4v0zM1690 1434q-11 0 -20 3.5t-17 11.5q-7 7 -11 16.5t-4 19.5t4 19.5t11 16.5q8 7 17 11t20 4q10 0 19.5 -4t16.5 -11t11 -16.5t4 -19.5t-4 -19.5t-11 -16.5q-7 -8 -16.5 -11.5t-19.5 -3.5v0zM1690 1229q-11 0 -20 4t-17 11
q-7 7 -11 16.5t-4 19.5t4 19.5t11 16.5q8 7 17 11t20 4q10 0 19.5 -4t16.5 -11t11 -16.5t4 -19.5t-4 -19.5t-11 -16.5t-16.5 -11t-19.5 -4v0z" />
    <glyph glyph-name="uniE620" unicode="paint&#x2d;roller" 
d="M1792 1536h-51v51q0 64 -45 109t-109 45h-1433q-64 0 -109 -45t-45 -109v-205q0 -63 45 -108t109 -45h1433q64 0 109 45t45 108v52h51q21 0 36 -15t15 -37v-204q0 -22 -15 -37t-36 -15h-819q-64 0 -109 -45t-45 -108v-163q-44 -15 -73 -54.5t-29 -89.5v-512
q0 -64 45 -109t108 -45q64 0 109 45t45 109v512q0 50 -29 89.5t-73 54.5v163q0 21 15 36t36 15h819q64 0 109 45t45 109v204q0 64 -45 109t-109 45v0zM1638 1382q0 -21 -15 -36t-36 -15h-1433q-22 0 -37 15t-15 36v205q0 21 15 36t37 15h1433q21 0 36 -15t15 -36v-205v0z
M922 154q0 -22 -15 -37t-37 -15q-21 0 -36 15t-15 37v512q0 21 15 36t36 15q22 0 37 -15t15 -36v-512v0z" />
    <glyph glyph-name="uniE621" unicode="rubber&#x2d;stamp" 
d="M1792 -102h-1638q-22 0 -37 15t-15 36t15 36t37 15h1638q21 0 36 -15t15 -36t-15 -36t-36 -15v0zM1792 512h-461q-41 0 -71.5 45.5t-30.5 108.5v515q46 27 83.5 64.5t64.5 83t42 98t15 109.5q0 85 -32.5 159.5t-88 130t-130 88t-159.5 32.5t-159.5 -32.5t-130 -88
t-88 -130t-32.5 -159.5q0 -57 15 -109.5t42 -98t64.5 -83t83.5 -64.5v-515q0 -63 -30.5 -108.5t-71.5 -45.5h-563q-64 0 -109 -45t-45 -109v-102q0 -64 45 -109t109 -45h1638q64 0 109 45t45 109v102q0 64 -45 109t-109 45v0zM717 1536q0 64 24 119.5t66 97.5t97.5 66
t119.5 24t119.5 -24t97.5 -66t66 -97.5t24 -119.5t-24 -119.5t-66 -97.5t-97.5 -66t-119.5 -24t-119.5 24t-97.5 66t-66 97.5t-24 119.5v0zM922 666v473q24 -6 49.5 -9.5t52.5 -3.5t52.5 3.5t49.5 9.5v-473q0 -44 11 -83t30 -71h-286q19 32 30 71t11 83v0zM1843 256
q0 -21 -15 -36t-36 -15h-1638q-22 0 -37 15t-15 36v102q0 22 15 37t37 15h1638q21 0 36 -15t15 -37v-102v0zM870 1536q-4 0 -8 0.5t-9 2.5q-20 7 -29 26t-2 39q16 44 53 81t81 53q20 7 39 -2t26 -29t-2 -39.5t-29 -26.5q-22 -7 -43 -28t-28 -43q-6 -16 -19.5 -25t-29.5 -9v0
z" />
    <glyph glyph-name="uniE622" unicode="adhesive" 
d="M819 1229q-77 0 -147.5 12.5t-125.5 36.5q-89 38 -112.5 83t-23.5 73q0 27 23.5 72t112.5 83q55 24 125.5 36.5t147.5 12.5t147.5 -12.5t126.5 -36.5q89 -38 112.5 -83t23.5 -72q0 -28 -23.5 -73t-112.5 -83q-56 -24 -126.5 -36.5t-147.5 -12.5v0zM819 1536
q-71 0 -128 -11t-97 -26.5t-61 -33.5t-21 -31q0 -14 21 -31.5t61 -33.5t97 -27t128 -11q72 0 129 11t96.5 27t60.5 33.5t21 31.5q0 13 -21 31t-60.5 33.5t-96.5 26.5t-129 11v0zM2034 1101q-3 2 -32.5 30t-82 67.5t-125.5 84t-163 80.5q4 17 5.5 35t1.5 36q0 53 -16 103.5
t-48 97.5t-78.5 89.5t-106.5 78.5q-58 35 -124 61.5t-138 44.5t-149.5 27.5t-158.5 9.5q-80 0 -157.5 -9.5t-150 -27.5t-138.5 -44.5t-123 -61.5q-61 -36 -107.5 -78.5t-78 -89.5t-48 -97.5t-16.5 -103.5q0 -54 16.5 -104.5t48 -97.5t78 -89.5t107.5 -78.5l28 -16t29 -15
v-222q-65 -33 -118.5 -73t-92.5 -86q-47 -55 -71.5 -117t-24.5 -125q0 -54 16.5 -104.5t48 -97.5t78 -89.5t107.5 -78.5q57 -35 123 -61.5t138.5 -44.5t150 -27t157.5 -9q73 0 144 7.5t138.5 23t129.5 37.5t117 51q46 24 85.5 52t72 59t57.5 65t42 70q27 -21 55.5 -45
t57.5 -50q51 -47 94.5 -91.5t75.5 -80t50 -57.5t19 -22q7 -9 17.5 -14t22.5 -5q4 0 8.5 0.5t8.5 1.5q15 6 24.5 19t9.5 30v1116q0 10 -3.5 19t-10.5 17v0zM102 1434q0 39 13.5 77t38.5 73.5t62.5 69t85.5 62.5q52 30 111.5 54t125 40t136.5 24.5t144 8.5q74 0 144.5 -8.5
t136 -24.5t125 -40t111.5 -54q48 -29 85.5 -62.5t63 -69t38.5 -73.5t13 -77q0 -22 -4 -43t-12 -42v0v-1v0v0q-21 -54 -67.5 -104t-116.5 -92q-18 -11 -37 -21t-38 -19q-1 0 -1.5 -0.5t-1.5 -0.5q-47 -21 -99 -37.5t-107.5 -27.5t-113.5 -16.5t-119 -5.5q-60 0 -118.5 5.5
t-114 16.5t-107 27.5t-98.5 37.5q-1 0 -2 0.5l-1 0.5q-20 9 -39 19t-37 21q-48 29 -85.5 62t-62.5 68.5t-38.5 73.5t-13.5 78v0zM819 922q55 0 108.5 4t105 12.5t101 21.5t95.5 29v-528q0 -24 -28 -50.5t-77 -47.5q-30 -14 -65 -24t-74 -17.5t-80.5 -11t-85.5 -3.5
q-43 0 -85 3.5t-80.5 11t-74 17.5t-65.5 24q-48 21 -76 47.5t-28 50.5v528q46 -16 95 -29t100.5 -21.5t105 -12.5t108.5 -4v0zM1301 108q-50 -26 -106.5 -46t-117.5 -34t-126 -21t-132 -7q-73 0 -144 8.5t-136.5 24.5t-125 40t-111.5 55q-48 29 -85.5 62t-62.5 68.5
t-38.5 73.5t-13.5 78q0 39 14 77.5t40 75t64.5 70t86.5 61.5v-233q0 -57 43 -106.5t123 -85.5q35 -15 75 -27t84 -20.5t91 -12.5t96 -4t96 4t91 12.5t84.5 20.5t75.5 27q60 27 99.5 62t55.5 75q43 -7 93 -28t105 -56q-24 -61 -79.5 -116t-138.5 -98v0zM1946 86
q-32 34 -72 74.5t-86 82.5q-65 59 -126 105t-118.5 79.5t-110.5 53.5t-102 27v525q15 7 29.5 15t28.5 16q71 43 123 94t83 109q67 -27 124.5 -60t102.5 -64.5t76.5 -58t47.5 -41.5v-957v0z" />
    <glyph glyph-name="uniE623" unicode="adhesive&#x32;" 
d="M1911 1124v0l-1156 387q-5 2 -10.5 4t-10.5 3h-1v0q-28 9 -58 13.5t-61 4.5q-71 0 -136 -23.5t-118 -65t-90 -99t-54 -125.5q-39 3 -80.5 4.5t-84.5 1.5q-21 0 -36 -15t-15 -36q0 -42 5 -100t15 -124.5t24.5 -137.5t34.5 -139q26 -92 57 -161.5t66 -115.5t74 -69.5
t82 -23.5h1142q53 0 100.5 28.5t88 73.5t73.5 100.5t58 108.5q28 58 51 121t39.5 123.5t26 115.5t9.5 97q0 17 -10 30t-25 19v0zM614 1434q23 0 45.5 -3.5t43.5 -9.5l18 -6q44 -17 80.5 -45.5t63.5 -66t42 -82.5t15 -95q0 -19 -2.5 -38t-7.5 -37q-23 10 -47 20t-49 19
q2 9 2.5 18t0.5 18q0 43 -16 80t-44 65t-65 44t-80 16q-38 0 -74 -14t-64 -40q-18 -16 -31.5 -36t-21.5 -42q-25 4 -51 7.5t-52 6.5q14 49 42.5 89t67 69.5t86 46t98.5 16.5v0zM526 1178q14 23 37.5 37t50.5 14q43 0 73 -30t30 -73v0v0q-45 14 -92.5 27.5t-98.5 24.5v0z
M1728 662q-28 -58 -57.5 -105t-59.5 -79.5t-58 -50t-53 -17.5v0h-1v0h-1141q-27 0 -50.5 24.5t-40.5 50.5q-24 39 -47 94.5t-43 125.5q-15 55 -27.5 112t-22 112t-15 105.5t-8.5 91.5q38 -1 74 -3t71 -5q1 0 1.5 -0.5t2.5 -0.5h2.5h3.5q50 -5 97 -11.5t91 -14.5
q2 -1 4.5 -1.5t5.5 -0.5q76 -15 144 -34.5t130 -41.5q2 -1 4.5 -1.5t4.5 -1.5q48 -18 93 -36.5t87 -38.5h0.5t0.5 -1h1v0q43 -20 83.5 -40t78.5 -39q54 -28 105.5 -53t101 -44t97.5 -30t97 -11q44 0 86.5 7.5t81.5 23t75 38.5t69 53q-14 -45 -31.5 -90t-37.5 -87v0z
M1763 952q-55 -66 -125 -99.5t-153 -33.5q-39 0 -80 10t-84.5 27t-91 40t-99.5 50q-29 15 -60 30.5t-64 30.5q9 29 13.5 59t4.5 60q0 56 -14.5 108t-40.5 97l856 -287q-10 -19 -25.5 -43t-36.5 -49v0z" />
    <glyph glyph-name="uniE624" unicode="design" 
d="M51 1741q-10 0 -19.5 4t-16.5 11t-11 16.5t-4 19.5t4 19.5t11 16.5t16.5 11t19.5 4t19.5 -4t16.5 -11q8 -7 11.5 -16.5t3.5 -19.5t-3.5 -19.5t-11.5 -16.5q-7 -7 -16.5 -11t-19.5 -4v0zM256 1741q-10 0 -19.5 4t-16.5 11t-11 16.5t-4 19.5t4 19.5t11 16.5t16.5 11t19.5 4
t19.5 -4t16.5 -11t11 -16.5t4 -19.5t-4 -19.5t-11 -16.5t-16.5 -11t-19.5 -4v0zM461 1741q-10 0 -19.5 4t-16.5 11q-8 7 -11.5 16.5t-3.5 19.5t3.5 19.5t11.5 16.5q7 7 16.5 11t19.5 4t19.5 -4t16.5 -11t11 -16.5t4 -19.5t-4 -19.5t-11 -16.5t-16.5 -11t-19.5 -4v0z
M666 1741q-11 0 -20 4t-17 11q-7 7 -11 16.5t-4 19.5t4 19.5t11 16.5q8 7 17 11t20 4q10 0 19.5 -4t16.5 -11t11 -16.5t4 -19.5t-4 -19.5t-11 -16.5t-16.5 -11t-19.5 -4v0zM870 1741q-10 0 -19.5 4t-16.5 11t-11 16.5t-4 19.5t4 19.5t11 16.5t16.5 11t19.5 4q11 0 20 -4
t17 -11q7 -7 11 -16.5t4 -19.5t-4 -19.5t-11 -16.5q-8 -7 -17 -11t-20 -4v0zM1894 1741h-819q-21 0 -36 15t-15 36t15 36t36 15h819q22 0 37 -15t15 -36t-15 -36t-37 -15v0zM51 1536q-10 0 -19.5 4t-16.5 11t-11 16.5t-4 19.5t4 19.5t11 16.5q7 8 16.5 11.5t19.5 3.5
t19.5 -3.5t16.5 -11.5q8 -7 11.5 -16.5t3.5 -19.5t-3.5 -19.5t-11.5 -16.5q-7 -7 -16.5 -11t-19.5 -4v0zM256 1536q-10 0 -19.5 4t-16.5 11t-11 16.5t-4 19.5t4 19.5t11 16.5q7 8 16.5 11.5t19.5 3.5t19.5 -3.5t16.5 -11.5q7 -7 11 -16.5t4 -19.5t-4 -19.5t-11 -16.5
t-16.5 -11t-19.5 -4v0zM461 1536q-10 0 -19.5 4t-16.5 11q-8 7 -11.5 16.5t-3.5 19.5t3.5 19.5t11.5 16.5q7 8 16.5 11.5t19.5 3.5t19.5 -3.5t16.5 -11.5q7 -7 11 -16.5t4 -19.5t-4 -19.5t-11 -16.5t-16.5 -11t-19.5 -4v0zM666 1536q-11 0 -20 4t-17 11q-7 7 -11 16.5
t-4 19.5t4 19.5t11 16.5q8 8 17 11.5t20 3.5q10 0 19.5 -3.5t16.5 -11.5q7 -7 11 -16.5t4 -19.5t-4 -19.5t-11 -16.5t-16.5 -11t-19.5 -4v0zM870 1536q-10 0 -19.5 4t-16.5 11t-11 16.5t-4 19.5t4 19.5t11 16.5q7 8 16.5 11.5t19.5 3.5q11 0 20 -3.5t17 -11.5q7 -7 11 -16.5
t4 -19.5t-4 -19.5t-11 -16.5q-8 -7 -17 -11t-20 -4v0zM1894 1536h-819q-21 0 -36 15t-15 36t15 36t36 15h819q22 0 37 -15t15 -36t-15 -36t-37 -15v0zM51 1331q-10 0 -19.5 4t-16.5 11t-11 16.5t-4 19.5q0 11 4 20t11 17q7 7 16.5 11t19.5 4t19.5 -4t16.5 -11q8 -8 11.5 -17
t3.5 -20q0 -10 -3.5 -19.5t-11.5 -16.5q-7 -7 -16.5 -11t-19.5 -4v0zM256 1331q-10 0 -19.5 4t-16.5 11t-11 16.5t-4 19.5q0 11 4 20t11 17q7 7 16.5 11t19.5 4t19.5 -4t16.5 -11q7 -8 11 -17t4 -20q0 -10 -4 -19.5t-11 -16.5t-16.5 -11t-19.5 -4v0zM461 1331q-10 0 -19.5 4
t-16.5 11q-8 7 -11.5 16.5t-3.5 19.5q0 11 3.5 20t11.5 17q7 7 16.5 11t19.5 4t19.5 -4t16.5 -11q7 -8 11 -17t4 -20q0 -10 -4 -19.5t-11 -16.5t-16.5 -11t-19.5 -4v0zM666 1331q-11 0 -20 4t-17 11q-7 7 -11 16.5t-4 19.5q0 11 4 20t11 17q8 7 17 11t20 4q10 0 19.5 -4
t16.5 -11q7 -8 11 -17t4 -20q0 -10 -4 -19.5t-11 -16.5t-16.5 -11t-19.5 -4v0zM870 1331q-10 0 -19.5 4t-16.5 11t-11 16.5t-4 19.5q0 11 4 20t11 17q7 7 16.5 11t19.5 4q11 0 20 -4t17 -11q7 -8 11 -17t4 -20q0 -10 -4 -19.5t-11 -16.5q-8 -7 -17 -11t-20 -4v0zM1894 1331
h-819q-21 0 -36 15t-15 36q0 22 15 37t36 15h819q22 0 37 -15t15 -37q0 -21 -15 -36t-37 -15v0zM51 1126q-10 0 -19.5 4t-16.5 11q-7 8 -11 17t-4 20q0 10 4 19.5t11 16.5t16.5 11t19.5 4t19.5 -4t16.5 -11q8 -7 11.5 -16.5t3.5 -19.5q0 -11 -3.5 -20t-11.5 -17
q-7 -7 -16.5 -11t-19.5 -4v0zM256 1126q-10 0 -19.5 4t-16.5 11q-7 8 -11 17t-4 20q0 10 4 19.5t11 16.5t16.5 11t19.5 4t19.5 -4t16.5 -11t11 -16.5t4 -19.5q0 -11 -4 -20t-11 -17q-7 -7 -16.5 -11t-19.5 -4v0zM461 1126q-10 0 -19.5 4t-16.5 11q-8 8 -11.5 17t-3.5 20
q0 10 3.5 19.5t11.5 16.5q7 7 16.5 11t19.5 4t19.5 -4t16.5 -11t11 -16.5t4 -19.5q0 -11 -4 -20t-11 -17q-7 -7 -16.5 -11t-19.5 -4v0zM666 1126q-11 0 -20 4t-17 11q-7 8 -11 17t-4 20q0 10 4 19.5t11 16.5q8 7 17 11t20 4q10 0 19.5 -4t16.5 -11t11 -16.5t4 -19.5
q0 -11 -4 -20t-11 -17q-7 -7 -16.5 -11t-19.5 -4v0zM870 1126q-10 0 -19.5 4t-16.5 11q-7 8 -11 17t-4 20q0 10 4 19.5t11 16.5t16.5 11t19.5 4q11 0 20 -4t17 -11q7 -7 11 -16.5t4 -19.5q0 -11 -4 -20t-11 -17q-8 -7 -17 -11t-20 -4v0zM1894 1126h-819q-21 0 -36 15t-15 37
q0 21 15 36t36 15h819q22 0 37 -15t15 -36q0 -22 -15 -37t-37 -15v0zM51 922q-10 0 -19.5 3.5t-16.5 11.5q-7 7 -11 16.5t-4 19.5t4 19.5t11 16.5t16.5 11t19.5 4t19.5 -4t16.5 -11q8 -7 11.5 -16.5t3.5 -19.5t-3.5 -19.5t-11.5 -16.5q-7 -8 -16.5 -11.5t-19.5 -3.5v0z
M256 922q-10 0 -19.5 3.5t-16.5 11.5q-7 7 -11 16.5t-4 19.5t4 19.5t11 16.5t16.5 11t19.5 4t19.5 -4t16.5 -11t11 -16.5t4 -19.5t-4 -19.5t-11 -16.5q-7 -8 -16.5 -11.5t-19.5 -3.5v0zM461 922q-10 0 -19.5 3.5t-16.5 11.5q-8 7 -11.5 16.5t-3.5 19.5t3.5 19.5t11.5 16.5
q7 7 16.5 11t19.5 4t19.5 -4t16.5 -11t11 -16.5t4 -19.5t-4 -19.5t-11 -16.5q-7 -8 -16.5 -11.5t-19.5 -3.5v0zM666 922q-11 0 -20 3.5t-17 11.5q-7 7 -11 16.5t-4 19.5t4 19.5t11 16.5q8 7 17 11t20 4q10 0 19.5 -4t16.5 -11t11 -16.5t4 -19.5t-4 -19.5t-11 -16.5
q-7 -8 -16.5 -11.5t-19.5 -3.5v0zM870 922q-10 0 -19.5 3.5t-16.5 11.5q-7 7 -11 16.5t-4 19.5t4 19.5t11 16.5t16.5 11t19.5 4q11 0 20 -4t17 -11q7 -7 11 -16.5t4 -19.5t-4 -19.5t-11 -16.5q-8 -8 -17 -11.5t-20 -3.5v0zM1894 922h-819q-21 0 -36 15t-15 36t15 36t36 15
h819q22 0 37 -15t15 -36t-15 -36t-37 -15v0zM51 -102q-21 0 -36 15t-15 36v819q0 21 15 36t36 15t36 -15t15 -36v-819q0 -21 -15 -36t-36 -15v0zM256 -102q-21 0 -36 15t-15 36v819q0 21 15 36t36 15t36 -15t15 -36v-819q0 -21 -15 -36t-36 -15v0zM461 -102q-21 0 -36 15
t-15 36v819q0 21 15 36t36 15t36 -15t15 -36v-819q0 -21 -15 -36t-36 -15v0zM666 -102q-22 0 -37 15t-15 36v819q0 21 15 36t37 15q21 0 36 -15t15 -36v-819q0 -21 -15 -36t-36 -15v0zM870 -102q-21 0 -36 15t-15 36v819q0 21 15 36t36 15q22 0 37 -15t15 -36v-819
q0 -21 -15 -36t-37 -15v0zM1894 819h-819q-21 0 -36 -15t-15 -36v-819q0 -21 15 -36t36 -15h819q22 0 37 15t15 36v819q0 21 -15 36t-37 15v0zM1434 410h-103v102h103v-102v0zM1536 512h102v-102h-102v102v0zM1229 410h-103v102h103v-102v0zM1229 307v-102h-103v102h103v0z
M1331 307h103v-102h-103v102v0zM1536 307h102v-102h-102v102v0zM1741 307h102v-102h-102v102v0zM1741 410v102h102v-102h-102v0zM1741 614v103h102v-103h-102v0zM1638 614h-102v103h102v-103v0zM1434 614h-103v103h103v-103v0zM1229 614h-103v103h103v-103v0zM1126 102h103
v-102h-103v102v0zM1331 102h103v-102h-103v102v0zM1536 102h102v-102h-102v102v0zM1741 102h102v-102h-102v102v0z" />
    <glyph glyph-name="uniE625" unicode="color&#x2d;picker" 
d="M1946 1539q0 61 -23 116.5t-67 98.5q-43 43 -98.5 66t-116.5 23t-116.5 -23t-98.5 -66l-351 -350l-66 66q-15 15 -36 15t-36 -15t-15 -36.5t15 -36.5l117 -117l-729 -729q-29 -29 -46.5 -67.5t-20.5 -79.5q-67 -17 -111.5 -72t-44.5 -127q0 -43 16.5 -80t44 -65t65 -44
t79.5 -16q72 0 127 44.5t72 111.5q41 3 79.5 20t68.5 47l728 729l118 -118q7 -7 16.5 -11t19.5 -4t19.5 4t16.5 11q15 15 15 36.5t-15 36.5l-66 66l350 350q44 43 67 99t23 117v0zM581 295q-22 -22 -51.5 -31.5t-60.5 -4.5q-11 2 -22 -1t-20 -11q-9 -7 -13.5 -17.5
t-3.5 -22.5v-1v-1q0 -43 -30 -73t-73 -30q-42 0 -72 30t-30 73q0 42 30 72t72 30h1.5h1.5q11 0 21.5 4.5t17.5 13.5q8 8 11 19t1 22q-5 31 5 61t32 52l728 729l184 -184l-729 -729v0zM1784 1396l-350 -351l-286 286l350 351q29 28 65.5 43.5t77.5 15.5q40 0 77 -15.5
t66 -43.5q29 -29 44 -66t15 -77q0 -41 -15 -78t-44 -65v0z" />
    <glyph glyph-name="uniE626" unicode="design&#x32;" 
d="M666 1126q-64 0 -109 45t-45 109t45 109t109 45q63 0 108 -45t45 -109t-45 -109t-108 -45v0zM666 1331q-22 0 -37 -15t-15 -36t15 -36t37 -15q21 0 36 15t15 36t-15 36t-36 15v0zM358 819q-63 0 -108 45t-45 109q0 63 45 108t108 45q64 0 109 -45t45 -108q0 -64 -45 -109
t-109 -45v0zM358 1024q-21 0 -36 -15t-15 -36t15 -36t36 -15q22 0 37 15t15 36t-15 36t-37 15v0zM1075 1229q-63 0 -108 45t-45 108q0 64 45 109t108 45q64 0 109 -45t45 -109q0 -63 -45 -108t-109 -45v0zM1075 1434q-21 0 -36 -15t-15 -37q0 -21 15 -36t36 -15t36 15t15 36
q0 22 -15 37t-36 15v0zM1024 0q-102 0 -200 16.5t-190 48.5t-175 79t-156 108q-35 30 -67 62.5t-59.5 67t-51.5 71.5t-43 76q-20 40 -35.5 82t-26 84.5t-15.5 86.5t-5 88q0 45 5 88.5t15.5 86.5t26 85t35.5 82q19 39 43 76t51.5 71.5t59.5 67t67 62.5q73 61 156 108t175 79
t190 48.5t200 16.5t200 -16.5t190 -48.5t175 -79t156 -108q35 -30 67 -62.5t59.5 -67t51.5 -71.5t43 -76q20 -40 35.5 -82t26 -85t15.5 -86.5t5 -88.5q0 -142 -52 -199.5t-112 -57.5q-49 0 -98 33.5t-88 93.5q-25 38 -50.5 58.5t-48.5 20.5q-7 0 -14.5 -2.5t-15.5 -6.5
q-43 -26 -30 -83.5t32 -96.5q30 -64 47 -123t19.5 -113t-9.5 -102t-38 -90q-31 -50 -82.5 -88t-122.5 -63.5t-161.5 -38t-199.5 -12.5v0zM1024 1638q-191 0 -358.5 -60t-293 -164.5t-198 -244.5t-72.5 -299q0 -158 72.5 -298t198 -244.5t293 -165t358.5 -60.5q52 0 99.5 3
t90 9.5t79.5 15.5t68 21q50 19 86 45.5t56 59.5q24 38 29.5 80.5t-1 86t-21 85.5t-32.5 77q-36 76 -41 130.5t7 92t34 59t38 31.5q20 11 41 17t42 6q35 0 84.5 -23.5t100.5 -101.5q29 -45 56.5 -62.5t43.5 -17.5q28 0 45 42.5t17 111.5q0 159 -72.5 299t-198 244.5
t-293 164.5t-358.5 60v0zM1126 307q-42 0 -79.5 16t-65 44t-43.5 65.5t-16 79.5t16 79.5t43.5 65.5t65 44t79.5 16q43 0 80 -16t65 -44t44 -65.5t16 -79.5t-16 -79.5t-44 -65.5t-65 -44t-80 -16v0zM1126 614q-42 0 -72 -30t-30 -72t30 -72t72 -30q43 0 73 30t30 72t-30 72
t-73 30v0z" />
    <glyph glyph-name="uniE627" unicode="color&#x2d;sampler" 
d="M1382 1024q-63 0 -108 45t-45 109q0 63 45 108t108 45q64 0 109 -45t45 -108q0 -64 -45 -109t-109 -45v0zM1382 1229q-21 0 -36 -15t-15 -36q0 -22 15 -37t36 -15q22 0 37 15t15 37q0 21 -15 36t-37 15v0zM717 43q-31 0 -59 11.5t-50 32.5l-521 521q-21 22 -32.5 50
t-11.5 59t11.5 59t32.5 49l982 982q22 22 50 33.5t59 11.5q30 0 58.5 -11.5t49.5 -33.5l521 -521q45 -45 45 -108.5t-45 -108.5l-982 -982q-21 -21 -49 -32.5t-59 -11.5v0zM1178 1749q-11 0 -20 -3.5t-17 -10.5l-981 -982q-7 -7 -11 -16.5t-4 -19.5q0 -11 4 -20t11 -16
l521 -521q7 -7 16 -11t20 -4q10 0 19.5 4t16.5 11l982 981q15 15 15 36.5t-15 36.5l-521 521q-7 7 -16.5 10.5t-19.5 3.5v0zM1149 -100q-22 0 -44 6.5t-41 19.5l-120 83q-18 12 -21.5 33t8.5 38q12 18 32.5 21.5t38.5 -8.5l120 -82q8 -6 17.5 -8t19.5 0q9 2 17 7.5t14 13.5
l559 874q11 18 32 22.5t39 -6.5q17 -12 22 -32.5t-7 -38.5l-559 -874q-17 -26 -42 -43t-55 -23q-7 -2 -14.5 -2.5t-15.5 -0.5v0zM1582 -29q-10 0 -19 1.5t-18 4.5l-76 26q-21 6 -30 25t-3 39q7 21 26 30t39 3l77 -26q1 0 4 -0.5t9 2.5q6 4 13.5 13t11.5 23l127 465
q5 20 23.5 30.5t38.5 5.5q21 -6 31.5 -24.5t4.5 -38.5l-126 -465q-9 -33 -29 -59t-47 -40q-14 -7 -28.5 -11t-28.5 -4v0z" />
    <glyph glyph-name="uniE628" unicode="bucket" 
d="M1741 1280v0.5v1.5v0v0q-1 23 -16 55.5t-63 64.5q-31 21 -73 39t-95 33q-41 12 -86 21.5t-94 16.5q-20 36 -66 108.5t-116 144.5t-162 126.5t-202 54.5q-86 0 -134 -34t-71 -69q-18 -28 -30 -64.5t-17 -80.5t-3.5 -95.5t10.5 -110.5q-19 -4 -36.5 -8.5t-34.5 -9.5
q-53 -15 -95.5 -33t-72.5 -39q-48 -32 -63.5 -64.5t-15.5 -55.5v0v0v-1.5v-0.5q0 -7 1 -14.5t3 -16.5l193 -1156q5 -31 25.5 -63t47.5 -50q5 -3 32 -16.5t85 -28t151.5 -26t229.5 -11.5t229 11.5t151 26t85.5 28t32.5 16.5q26 18 46.5 50t26.5 63l192 1156q3 9 4 16.5
t1 14.5v0zM1638 1282l-1 -8q-6 -13 -42.5 -38t-128.5 -52q-50 -14 -106.5 -24.5t-119 -18t-130 -11.5t-137.5 -4q-67 0 -131 3.5t-124 10.5q-10 30 -20 62t-20 65q-11 38 -20 73.5t-16 69.5q37 6 77 10.5t81.5 7.5t85 4.5t87.5 1.5q79 0 154 -5t144 -14q1 0 2 -0.5t2 -0.5
q53 -7 100.5 -16.5t90.5 -21.5q100 -29 134.5 -56t37.5 -38v0zM1229 666q0 -22 -15 -37t-36 -15q-22 0 -37 15t-15 37q1 11 12 48t23 71l8 26t9 27q4 -14 8 -27t9 -26q11 -34 22.5 -71t11.5 -48v0zM649 1788q18 28 47 41.5t72 13.5q72 0 136 -33t117.5 -81t95.5 -103t69 -99
q-51 4 -104.5 6.5t-108.5 2.5q-47 0 -92 -1.5t-89 -5t-86 -8t-82 -10.5q-14 96 -7.5 166t32.5 111v0zM480 1376q15 4 30 7.5t31 7.5q8 -36 17.5 -74t21.5 -78q6 -22 12.5 -42.5t12.5 -40.5q-34 6 -65 13t-60 15q-92 27 -128.5 52t-42.5 38l-1 8q2 11 37 38t135 56v0z
M1443 110q-2 -10 -11 -24t-18 -20q-2 -2 -26 -12t-75.5 -22t-135 -22t-204.5 -10t-204.5 10t-135.5 22t-75.5 22t-26.5 12q-8 6 -17 20t-11 24l-170 1020q25 -12 55 -23t64 -21q43 -12 91 -22t100 -18q31 -85 54 -139t24 -58q7 -14 19.5 -22t27.5 -8q5 0 10.5 1t10.5 4
q19 8 26.5 28t-0.5 39q-1 1 -17.5 40t-40.5 102q52 -4 106 -6.5t110 -2.5q38 0 75.5 1t73.5 3q-8 -47 -25 -103.5t-34 -107.5q-19 -59 -29 -94t-10 -57q0 -64 45 -109t109 -45q63 0 108 45t45 109q0 22 -10 57t-29 94q-17 53 -35 112.5t-25 107.5q73 8 139 20.5t123 28.5
q34 10 64 21t55 23l-170 -1020v0z" />
    <glyph glyph-name="uniE629" unicode="gradient" 
d="M1894 -102h-1740q-64 0 -109 45t-45 108v1741q0 64 45 109t109 45h1740q64 0 109 -45t45 -109v-1741q0 -63 -45 -108t-109 -45v0zM154 1843q-22 0 -37 -15t-15 -36v-1741q0 -21 15 -36t37 -15h1740q22 0 37 15t15 36v1741q0 21 -15 36t-37 15h-1740v0zM512 1690
q0 -22 -15 -37t-36 -15t-36 15t-15 37q0 21 15 36t36 15t36 -15t15 -36v0zM512 1587q0 -21 -15 -36t-36 -15t-36 15t-15 36t15 36t36 15t36 -15t15 -36v0zM512 1485q0 -21 -15 -36t-36 -15t-36 15t-15 36t15 36t36 15t36 -15t15 -36v0zM512 1382q0 -21 -15 -36t-36 -15
t-36 15t-15 36q0 22 15 37t36 15t36 -15t15 -37v0zM512 1280q0 -21 -15 -36t-36 -15t-36 15t-15 36t15 36t36 15t36 -15t15 -36v0zM512 1178q0 -22 -15 -37t-36 -15t-36 15t-15 37q0 21 15 36t36 15t36 -15t15 -36v0zM512 1075q0 -21 -15 -36t-36 -15t-36 15t-15 36t15 36
t36 15t36 -15t15 -36v0zM512 973q0 -21 -15 -36t-36 -15t-36 15t-15 36t15 36t36 15t36 -15t15 -36v0zM512 870q0 -21 -15 -36t-36 -15t-36 15t-15 36q0 22 15 37t36 15t36 -15t15 -37v0zM512 768q0 -21 -15 -36t-36 -15t-36 15t-15 36t15 36t36 15t36 -15t15 -36v0z
M512 666q0 -22 -15 -37t-36 -15t-36 15t-15 37q0 21 15 36t36 15t36 -15t15 -36v0zM512 563q0 -21 -15 -36t-36 -15t-36 15t-15 36t15 36t36 15t36 -15t15 -36v0zM512 461q0 -21 -15 -36t-36 -15t-36 15t-15 36t15 36t36 15t36 -15t15 -36v0zM512 358q0 -21 -15 -36t-36 -15
t-36 15t-15 36q0 22 15 37t36 15t36 -15t15 -37v0zM512 256q0 -21 -15 -36t-36 -15t-36 15t-15 36t15 36t36 15t36 -15t15 -36v0zM614 1690q0 -22 -15 -37t-36 -15t-36 15t-15 37q0 21 15 36t36 15t36 -15t15 -36v0zM614 1485q0 -21 -15 -36t-36 -15t-36 15t-15 36t15 36
t36 15t36 -15t15 -36v0zM614 1280q0 -21 -15 -36t-36 -15t-36 15t-15 36t15 36t36 15t36 -15t15 -36v0zM614 1075q0 -21 -15 -36t-36 -15t-36 15t-15 36t15 36t36 15t36 -15t15 -36v0zM614 870q0 -21 -15 -36t-36 -15t-36 15t-15 36q0 22 15 37t36 15t36 -15t15 -37v0z
M614 666q0 -22 -15 -37t-36 -15t-36 15t-15 37q0 21 15 36t36 15t36 -15t15 -36v0zM614 461q0 -21 -15 -36t-36 -15t-36 15t-15 36t15 36t36 15t36 -15t15 -36v0zM614 256q0 -21 -15 -36t-36 -15t-36 15t-15 36t15 36t36 15t36 -15t15 -36v0zM717 1587q0 -21 -15 -36
t-36 -15q-22 0 -37 15t-15 36t15 36t37 15q21 0 36 -15t15 -36v0zM717 1382q0 -21 -15 -36t-36 -15q-22 0 -37 15t-15 36q0 22 15 37t37 15q21 0 36 -15t15 -37v0zM717 1178q0 -22 -15 -37t-36 -15q-22 0 -37 15t-15 37q0 21 15 36t37 15q21 0 36 -15t15 -36v0zM717 973
q0 -21 -15 -36t-36 -15q-22 0 -37 15t-15 36t15 36t37 15q21 0 36 -15t15 -36v0zM717 768q0 -21 -15 -36t-36 -15q-22 0 -37 15t-15 36t15 36t37 15q21 0 36 -15t15 -36v0zM717 563q0 -21 -15 -36t-36 -15q-22 0 -37 15t-15 36t15 36t37 15q21 0 36 -15t15 -36v0zM717 358
q0 -21 -15 -36t-36 -15q-22 0 -37 15t-15 36q0 22 15 37t37 15q21 0 36 -15t15 -37v0zM717 154q0 -22 -15 -37t-36 -15q-22 0 -37 15t-15 37q0 21 15 36t37 15q21 0 36 -15t15 -36v0zM922 1690q0 -22 -15 -37t-37 -15q-21 0 -36 15t-15 37q0 21 15 36t36 15q22 0 37 -15
t15 -36v0zM922 1485q0 -21 -15 -36t-37 -15q-21 0 -36 15t-15 36t15 36t36 15q22 0 37 -15t15 -36v0zM922 1280q0 -21 -15 -36t-37 -15q-21 0 -36 15t-15 36t15 36t36 15q22 0 37 -15t15 -36v0zM922 1075q0 -21 -15 -36t-37 -15q-21 0 -36 15t-15 36t15 36t36 15
q22 0 37 -15t15 -36v0zM922 870q0 -21 -15 -36t-37 -15q-21 0 -36 15t-15 36q0 22 15 37t36 15q22 0 37 -15t15 -37v0zM922 666q0 -22 -15 -37t-37 -15q-21 0 -36 15t-15 37q0 21 15 36t36 15q22 0 37 -15t15 -36v0zM922 461q0 -21 -15 -36t-37 -15q-21 0 -36 15t-15 36
t15 36t36 15q22 0 37 -15t15 -36v0zM922 256q0 -21 -15 -36t-37 -15q-21 0 -36 15t-15 36t15 36t36 15q22 0 37 -15t15 -36v0zM1126 1587q0 -21 -15 -36t-36 -15t-36 15t-15 36t15 36t36 15t36 -15t15 -36v0zM1126 1382q0 -21 -15 -36t-36 -15t-36 15t-15 36q0 22 15 37
t36 15t36 -15t15 -37v0zM1126 1178q0 -22 -15 -37t-36 -15t-36 15t-15 37q0 21 15 36t36 15t36 -15t15 -36v0zM1126 973q0 -21 -15 -36t-36 -15t-36 15t-15 36t15 36t36 15t36 -15t15 -36v0zM1126 768q0 -21 -15 -36t-36 -15t-36 15t-15 36t15 36t36 15t36 -15t15 -36v0z
M1126 563q0 -21 -15 -36t-36 -15t-36 15t-15 36t15 36t36 15t36 -15t15 -36v0zM1126 358q0 -21 -15 -36t-36 -15t-36 15t-15 36q0 22 15 37t36 15t36 -15t15 -37v0zM1126 154q0 -22 -15 -37t-36 -15t-36 15t-15 37q0 21 15 36t36 15t36 -15t15 -36v0zM512 154q0 -22 -15 -37
t-36 -15t-36 15t-15 37q0 21 15 36t36 15t36 -15t15 -36v0zM410 1690q0 -22 -15 -37t-37 -15q-21 0 -36 15t-15 37q0 21 15 36t36 15q22 0 37 -15t15 -36v0zM410 1587q0 -21 -15 -36t-37 -15q-21 0 -36 15t-15 36t15 36t36 15q22 0 37 -15t15 -36v0zM410 1485q0 -21 -15 -36
t-37 -15q-21 0 -36 15t-15 36t15 36t36 15q22 0 37 -15t15 -36v0zM410 1382q0 -21 -15 -36t-37 -15q-21 0 -36 15t-15 36q0 22 15 37t36 15q22 0 37 -15t15 -37v0zM410 1280q0 -21 -15 -36t-37 -15q-21 0 -36 15t-15 36t15 36t36 15q22 0 37 -15t15 -36v0zM410 1178
q0 -22 -15 -37t-37 -15q-21 0 -36 15t-15 37q0 21 15 36t36 15q22 0 37 -15t15 -36v0zM410 1075q0 -21 -15 -36t-37 -15q-21 0 -36 15t-15 36t15 36t36 15q22 0 37 -15t15 -36v0zM410 973q0 -21 -15 -36t-37 -15q-21 0 -36 15t-15 36t15 36t36 15q22 0 37 -15t15 -36v0z
M410 870q0 -21 -15 -36t-37 -15q-21 0 -36 15t-15 36q0 22 15 37t36 15q22 0 37 -15t15 -37v0zM410 768q0 -21 -15 -36t-37 -15q-21 0 -36 15t-15 36t15 36t36 15q22 0 37 -15t15 -36v0zM410 666q0 -22 -15 -37t-37 -15q-21 0 -36 15t-15 37q0 21 15 36t36 15q22 0 37 -15
t15 -36v0zM410 563q0 -21 -15 -36t-37 -15q-21 0 -36 15t-15 36t15 36t36 15q22 0 37 -15t15 -36v0zM410 461q0 -21 -15 -36t-37 -15q-21 0 -36 15t-15 36t15 36t36 15q22 0 37 -15t15 -36v0zM410 358q0 -21 -15 -36t-37 -15q-21 0 -36 15t-15 36q0 22 15 37t36 15
q22 0 37 -15t15 -37v0zM410 256q0 -21 -15 -36t-37 -15q-21 0 -36 15t-15 36t15 36t36 15q22 0 37 -15t15 -36v0zM410 154q0 -22 -15 -37t-37 -15q-21 0 -36 15t-15 37q0 21 15 36t36 15q22 0 37 -15t15 -36v0zM1331 1690q0 -22 -15 -37t-36 -15t-36 15t-15 37q0 21 15 36
t36 15t36 -15t15 -36v0zM1331 1280q0 -21 -15 -36t-36 -15t-36 15t-15 36t15 36t36 15t36 -15t15 -36v0zM1331 870q0 -21 -15 -36t-36 -15t-36 15t-15 36q0 22 15 37t36 15t36 -15t15 -37v0zM1331 461q0 -21 -15 -36t-36 -15t-36 15t-15 36t15 36t36 15t36 -15t15 -36v0z
M1536 1485q0 -21 -15 -36t-36 -15t-36 15t-15 36t15 36t36 15t36 -15t15 -36v0zM1536 1075q0 -21 -15 -36t-36 -15t-36 15t-15 36t15 36t36 15t36 -15t15 -36v0zM1536 666q0 -22 -15 -37t-36 -15t-36 15t-15 37q0 21 15 36t36 15t36 -15t15 -36v0zM1536 256q0 -21 -15 -36
t-36 -15t-36 15t-15 36t15 36t36 15t36 -15t15 -36v0zM256 102q-21 0 -36 15t-15 37v1536q0 21 15 36t36 15t36 -15t15 -36v-1536q0 -22 -15 -37t-36 -15v0z" />
    <glyph glyph-name="uniE62A" unicode="gradient&#x32;" 
d="M1894 -102h-1740q-64 0 -109 45t-45 108v1741q0 64 45 109t109 45h1740q64 0 109 -45t45 -109v-1741q0 -63 -45 -108t-109 -45v0zM154 1843q-22 0 -37 -15t-15 -36v-1741q0 -21 15 -36t37 -15h1740q22 0 37 15t15 36v1741q0 21 -15 36t-37 15h-1740v0zM1096 922l732 731
q15 15 15 36.5t-15 36.5t-36 15t-36 -15l-732 -732l-81 81l578 578q15 15 15 36.5t-15 36.5t-36 15t-36 -15l-579 -578l-81 81l425 424q15 15 15 36.5t-15 36.5t-36.5 15t-36.5 -15l-424 -425l-81 81l271 271q15 15 15 36.5t-15 36.5t-36.5 15t-36.5 -15l-271 -271l-81 81
l117 117q15 15 15 36.5t-15 36.5t-36 15t-36 -15l-117 -118l-118 118q-15 15 -36 15t-36 -15t-15 -36.5t15 -36.5l117 -117l-117 -117q-15 -15 -15 -36.5t15 -36.5l117 -117l-117 -118q-15 -15 -15 -36t15 -36l117 -117l-117 -118q-15 -15 -15 -36t15 -36l117 -118
l-117 -117q-15 -15 -15 -36t15 -36l117 -118l-117 -117q-15 -15 -15 -36.5t15 -36.5q7 -7 16.5 -11t19.5 -4t19.5 4t16.5 11l118 118l117 -118q7 -7 16.5 -11t19.5 -4t19.5 4t16.5 11q15 15 15 36.5t-15 36.5l-117 117l81 81l271 -271q8 -7 17.5 -11t18.5 -4q10 0 19.5 4
t17.5 11q15 15 15 36.5t-15 36.5l-271 271l81 81l424 -425q8 -7 17.5 -11t19.5 -4q9 0 18.5 4t17.5 11q15 15 15 36.5t-15 36.5l-425 424l81 82l579 -579q7 -7 16.5 -11t19.5 -4t19.5 4t16.5 11q15 15 15 36.5t-15 36.5l-578 578l81 81l732 -732q7 -7 16.5 -11t19.5 -4
t19.5 4t16.5 11q15 15 15 36.5t-15 36.5l-732 732v0zM798 1075l-81 -81l-81 81l81 81l81 -81v0zM644 922l-81 -82l-81 82l81 81l81 -81v0zM644 1229l-81 -81l-81 81l81 81l81 -81v0zM328 1382l82 82l81 -82l-81 -81l-82 81v0zM328 1075l82 81l81 -81l-81 -81l-82 81v0z
M328 768l82 81l81 -81l-81 -81l-82 81v0zM410 380l-82 81l82 81l81 -81l-81 -81v0zM563 533l-81 81l81 82l81 -82l-81 -81v0zM717 687l-81 81l81 81l81 -81l-81 -81v0zM870 840l-81 82l81 81l82 -81l-82 -82v0z" />
    <glyph glyph-name="uniE62B" unicode="magic&#x2d;wand" 
d="M1178 1229q-22 0 -37 15t-15 36q0 53 -20 99.5t-54.5 81.5t-81.5 55t-100 20q-21 0 -36 15t-15 36t15 36t36 15q53 0 100 20.5t81.5 55t54.5 81t20 99.5q0 22 15 37t37 15q21 0 36 -15t15 -37q0 -53 20 -99.5t55 -81t81.5 -55t99.5 -20.5q21 0 36 -15t15 -36t-15 -36
t-36 -15q-53 0 -99.5 -20t-81.5 -55t-55 -81.5t-20 -99.5q0 -21 -15 -36t-36 -15v0zM1055 1587q38 -23 69 -54t54 -69q22 38 53.5 69t68.5 54q-37 23 -68.5 54t-53.5 69q-23 -38 -54 -69t-69 -54v0zM154 922q-22 0 -37 15t-15 36t-15 36t-36 15t-36 15t-15 36t15 36t36 15
t36 15t15 37q0 21 15 36t37 15q21 0 36 -15t15 -36q0 -22 15 -37t36 -15t36 -15t15 -36t-15 -36t-36 -15t-36 -15t-15 -36t-15 -36t-36 -15v0zM1858 313l-1084 1084q-21 22 -49.5 33.5t-58.5 11.5q-31 0 -59 -11.5t-50 -33.5l-60 -60q-22 -21 -33.5 -49t-11.5 -59t11.5 -59
t33.5 -50l1084 -1084q22 -21 50 -33t59 -12q30 0 58.5 12t49.5 33l60 60q22 22 33.5 50t11.5 59t-11.5 59t-33.5 49v0zM569 1265l60 60q8 7 17 11t20 4q10 0 19.5 -4t16.5 -11l147 -147l-132 -133l-148 148q-15 15 -15 36t15 36v0zM1786 169l-60 -60q-7 -8 -16.5 -11.5
t-19.5 -3.5q-11 0 -20 3.5t-17 11.5l-864 864l133 132l864 -864q15 -15 15 -36t-15 -36v0zM358 1434q-21 0 -36 15t-15 36q0 63 -45 108t-108 45q-22 0 -37 15t-15 37q0 21 15 36t37 15q63 0 108 45t45 108q0 22 15 37t36 15q22 0 37 -15t15 -37q0 -63 45 -108t108 -45
q21 0 36 -15t15 -36q0 -22 -15 -37t-36 -15q-63 0 -108 -45t-45 -108q0 -21 -15 -36t-37 -15v0zM307 1690q15 -11 27.5 -24t23.5 -28q11 15 24 28t28 24q-15 11 -28 23.5t-24 27.5q-11 -15 -23.5 -27.5t-27.5 -23.5v0zM358 410q-21 0 -36 15t-15 36q0 63 -45 108t-108 45
q-22 0 -37 15t-15 37q0 21 15 36t37 15q63 0 108 45t45 108q0 22 15 37t36 15q22 0 37 -15t15 -37q0 -63 45 -108t108 -45q21 0 36 -15t15 -36q0 -22 -15 -37t-36 -15q-63 0 -108 -45t-45 -108q0 -21 -15 -36t-37 -15v0zM307 666q15 -11 27.5 -24t23.5 -28q11 15 24 28
t28 24q-15 11 -28 23.5t-24 27.5q-11 -15 -23.5 -27.5t-27.5 -23.5v0z" />
    <glyph glyph-name="uniE62C" unicode="attract" 
d="M1740 1801q-3 18 -17.5 30t-32.5 12h-410q-11 0 -21 -4.5t-18 -12.5q-7 -9 -10 -19.5t-2 -21.5q1 -3 17 -126t35 -285t34.5 -321t15.5 -234q0 -64 -23.5 -120.5t-65 -97.5t-97.5 -65t-121 -24q-64 0 -119.5 24t-97.5 66t-66 98t-24 119q0 72 15.5 231t34.5 321.5
t35 286.5t17 127q1 11 -2 21.5t-10 19.5q-8 8 -18 12.5t-21 4.5h-410q-18 0 -32.5 -12t-17.5 -30q-2 -9 -18 -105.5t-35 -240.5t-34.5 -313t-15.5 -323q0 -40 4 -80t12 -79t20 -77.5t28 -76.5q31 -72 75 -137.5t101 -122.5q58 -60 125.5 -105.5t141 -77t152 -47.5t160.5 -16
t160.5 16t152 47.5t141 77t125.5 105.5q57 57 101 122.5t75 137.5q16 38 28 76.5t20 77.5t12 79t4 80q0 154 -15.5 323t-34.5 313t-35 240.5t-18 105.5v0zM1647 1741q3 -22 8 -53.5t11 -70.5t13 -85t13 -97l-315 -1q-6 47 -11.5 92t-10.5 84.5t-9 72.5t-8 58h309v0z
M401 1741h309q-3 -25 -7.5 -58t-9.5 -72.5t-10.5 -84t-10.5 -91.5l-316 -1q6 51 13 97t13 85.5t11 71t8 53.5v0zM1024 102q-146 0 -276 57.5t-228 155.5t-155.5 228t-57.5 276q0 60 3 124.5t8 130t11.5 130.5t13.5 127l317 1q-9 -76 -17 -153t-14.5 -145t-10.5 -124t-4 -91
q0 -84 32.5 -159t88 -130.5t130 -87.5t159.5 -32q86 0 161 31.5t130 87t87 130t32 160.5q0 36 -4 92t-10 124t-14.5 144t-16.5 152l316 1q7 -62 13.5 -127t11.5 -131t8 -130t3 -125q0 -146 -57.5 -276t-155.5 -228t-228 -155.5t-276 -57.5v0z" />
    <glyph glyph-name="uniE62D" unicode="design&#x34;" 
d="M1982 87l-732 732l659 660q45 45 45 108.5t-45 108.5l-111 111q-21 22 -49.5 33.5t-58.5 11.5q-31 0 -59 -11.5t-50 -33.5l-659 -659l-732 731q-25 25 -58 32t-64 -6t-49.5 -41t-18.5 -63v-1750q0 -63 45 -108t109 -45h1749q35 0 63.5 18t41.5 50q13 31 6 63.5t-32 57.5
v0zM666 512h256q10 0 19.5 4t16.5 11l15 15l235 -235h-747q-21 0 -36 15t-15 36v747l234 -235l-15 -15q-7 -7 -11 -16.5t-4 -19.5v-256q0 -21 15 -36t37 -15v0zM900 614h-183v184l819 819l184 -183l-820 -820v0zM1690 1749q10 0 19.5 -3.5t16.5 -10.5l111 -112
q15 -15 15 -36t-15 -36l-45 -45l-184 184l45 45q8 7 17 10.5t20 3.5v0zM1913 5q-1 -3 -4 -4t-6 -1h-1749q-22 0 -37 15t-15 36v154h52q21 0 36 15t15 36t-15 36t-36 15h-52v205h52q21 0 36 15t15 36t-15 36t-36 15h-52v205h52q21 0 36 15t15 36q0 22 -15 37t-36 15h-52v204
h52q21 0 36 15t15 37q0 21 -15 36t-36 15h-52v572q0 2 1 5t4 5q3 1 5.5 -0.5t4.5 -3.5l732 -732l-132 -132l-250 250q-37 36 -66 36.5t-41 -4.5t-32.5 -26t-20.5 -73v-768q0 -63 45 -108t109 -45h768q52 0 72.5 20.5t25.5 32.5t5 41t-37 66l-250 249l133 133l731 -732
q2 -2 3.5 -4.5t0.5 -5.5v0z" />
    <glyph glyph-name="uniE62E" unicode="design&#x35;" 
d="M1997 1331q0 106 -40.5 199.5t-110 163t-162.5 109.5t-199 40q-58 0 -113.5 -12.5t-107.5 -37.5q-4 -2 -7.5 -4.5t-6.5 -5.5v0l-1081 -1081q-6 -6 -10 -13.5t-5 -15.5l-102 -717q-2 -12 2 -23.5t12 -19.5q7 -8 16.5 -11.5t19.5 -3.5h4h4l716 103q9 1 16.5 4.5t12.5 9.5
l1081 1081v0v0l1 1v0q3 3 5.5 6.5t4.5 7.5q25 52 37.5 107t12.5 113v0zM1894 1331q0 -44 -9 -86.5t-27 -81.5l-118 -118q-4 110 -47.5 207t-116.5 170t-170 117t-208 48l118 118q40 18 82.5 27t86.5 9q84 0 159 -32.5t130.5 -88t87.5 -130t32 -159.5v0zM205 307l44 304
q14 2 29 2.5t29 0.5q95 0 179 -36t146.5 -98.5t99 -146.5t36.5 -179q0 -15 -1 -29.5t-3 -29.5l-303 -43q0 52 -20.5 98.5t-55 81.5t-81 55t-99.5 20v0zM1088 1476q22 4 44.5 6.5t45.5 2.5q81 0 154.5 -27t132.5 -74l-798 -798q-34 29 -73.5 52.5t-82.5 40t-89 26.5t-94 11
l760 760v0zM740 514l797 797q48 -59 74.5 -132.5t26.5 -154.5q0 -23 -2 -45.5t-6 -44.5l-760 -760q-2 49 -11.5 95t-26.5 88.5t-40 82t-52 74.5v0zM191 204q3 0 6.5 0.5t7.5 0.5q63 0 108 -45t45 -109v-6.5v-7.5l-195 -28l28 195v0zM666 1946h-512q-64 0 -109 -45t-45 -109
v-1024q0 -21 15 -36t36 -15t36 15t15 36v256h154q21 0 36 15t15 36t-15 36t-36 15h-154v103h52q21 0 36 15t15 36t-15 36t-36 15h-52v103h154q21 0 36 15t15 36t-15 36t-36 15h-154v102h52q21 0 36 15t15 37q0 21 -15 36t-36 15h-52v51q0 21 15 36t37 15h512q21 0 36 -15
t15 -36v-205q0 -21 15 -36t36 -15t36 15t15 36v205q0 64 -45 109t-108 45v0z" />
    <glyph glyph-name="uniE62F" unicode="compass" 
d="M1075 614h-205q-21 0 -36 15t-15 37q0 21 15 36t36 15h205q21 0 36 -15t15 -36q0 -22 -15 -37t-36 -15v0zM1587 819q-21 0 -36 -15t-15 -36v-51h-102q-22 0 -37 -15t-15 -36q0 -22 15 -37t37 -15h102v-51q0 -21 15 -36t36 -15t36 15t15 36v205q0 21 -15 36t-36 15v0z
M1533 68l-428 1198q57 34 90.5 92.5t33.5 126.5q0 46 -15.5 87.5t-43 75t-65 56.5t-81.5 32v107h51q21 0 36 15t15 36q0 22 -15 37t-36 15h-205q-21 0 -36 -15t-15 -37q0 -21 15 -36t36 -15h52v-107q-44 -9 -81.5 -32t-65 -56.5t-43 -75t-15.5 -87.5q0 -68 33.5 -126.5
t89.5 -92.5l-427 -1198q-2 -4 -2.5 -8t-0.5 -9v-102q0 -21 15 -36t36 -15t36 15t15 36v93l461 1291l461 -1291v-93q0 -21 15 -36t36 -15t36 15t15 36v102q0 5 -1 9l-2 8v0zM973 1536q-16 0 -29.5 -9.5t-18.5 -24.5l-49 -136q-26 21 -41.5 52.5t-15.5 66.5q0 63 45 108
t109 45q63 0 108 -45t45 -108q0 -35 -15 -66.5t-41 -52.5l-49 136q-5 15 -18.5 24.5t-29.5 9.5v0z" />
    <glyph glyph-name="uniE630" unicode="aim" 
d="M973 1843q-21 0 -36 -15t-15 -36v-410q0 -21 15 -36t36 -15t36 15t15 36v410q0 21 -15 36t-36 15v0zM973 410q-21 0 -36 -15t-15 -37v-409q0 -21 15 -36t36 -15t36 15t15 36v409q0 22 -15 37t-36 15v0zM512 870q0 22 -15 37t-36 15h-410q-21 0 -36 -15t-15 -37
q0 -21 15 -36t36 -15h410q21 0 36 15t15 36v0zM1894 922h-409q-21 0 -36 -15t-15 -37q0 -21 15 -36t36 -15h409q22 0 37 15t15 36q0 22 -15 37t-37 15v0zM1660 1024q-17 0 -30.5 10t-18.5 27q-24 81 -66.5 152t-100.5 128.5t-129 100t-152 66.5q-20 6 -30.5 25t-3.5 39
q6 20 24.5 30.5t38.5 4.5q46 -14 89.5 -33t84.5 -43.5t78.5 -54t71.5 -63.5q34 -33 63 -71t53.5 -78.5t43.5 -84.5t33 -89q6 -21 -4 -39.5t-30 -24.5q-4 -1 -7.5 -1.5t-7.5 -0.5v0zM1178 132q-17 0 -31 10t-18 27q-7 20 3.5 38.5t30.5 24.5q81 24 152 67t129 100.5
t100.5 128.5t66.5 152q6 21 24.5 31t39.5 4q20 -6 30 -25t4 -39q-14 -46 -33 -89.5t-43.5 -84t-53.5 -78.5t-63 -72q-34 -33 -71.5 -62.5t-78.5 -54t-84.5 -43.5t-89.5 -33q-3 -1 -7 -1.5t-7 -0.5v0zM768 132q-4 0 -7.5 0.5t-7.5 1.5q-45 14 -88.5 33t-84.5 43.5t-78.5 54
t-71.5 62.5q-34 34 -63.5 72t-53.5 78.5t-43.5 84t-32.5 89.5q-6 20 4 39t30 25t39 -4t25 -31q24 -81 66.5 -152t100 -128.5t129 -100.5t152.5 -67q20 -6 30 -24.5t4 -38.5q-5 -17 -18.5 -27t-30.5 -10v0zM286 1024q-4 0 -7.5 0.5t-7.5 1.5q-20 6 -30 24.5t-4 39.5
q13 45 32.5 89t43.5 84.5t53.5 78.5t63.5 71q34 34 71.5 63.5t78.5 54t84.5 43.5t88.5 33q21 6 39.5 -4.5t24.5 -30.5t-4 -39t-30 -25q-81 -24 -152.5 -66.5t-129 -100t-100 -128.5t-66.5 -152q-5 -17 -19 -27t-30 -10v0z" />
    <glyph glyph-name="uniE631" unicode="gun" 
d="M1997 1536h-51v51q0 21 -15 36t-37 15q-21 0 -36 -15t-15 -36v-51h-1485q-14 0 -26.5 -7.5t-18.5 -20.5l-103 -205q-4 -9 -5 -19.5t3 -20.5q6 -19 15 -38.5t19 -41.5q13 -28 26.5 -59t23.5 -63l0.5 -1l0.5 -1q6 -22 10 -43.5t4 -42.5q0 -58 -36 -121t-85 -136
q-33 -48 -66 -100t-59.5 -109t-43.5 -119.5t-17 -131.5q0 -21 15 -36t36 -15h717q21 0 36 15t15 36t-15 36t-36 15h-48q4 47 16.5 98t29.5 103.5t37.5 105.5t42.5 103h332q58 0 111 38t72 94l58 175h373q64 0 109 45t45 109v51h51q21 0 36 15t15 36v205q0 21 -15 36t-36 15
v0zM819 1434h512v-103h-512v103v0zM270 659q27 40 52 78.5t44.5 77.5t31.5 78t12 80q0 13 -1 25.5t-3 25.5h479q-31 -55 -73.5 -139.5t-83 -182.5t-72 -200.5t-39.5 -194.5h-511q6 49 22 95t38.5 89.5t49.5 85t54 82.5v0zM1264 881q-8 -24 -34.5 -43t-51.5 -19h-284
q34 70 63 123.5t45 81.5h23q3 -32 15.5 -70.5t42.5 -66.5q8 -7 17 -10.5t18 -3.5q11 0 20.5 4t17.5 12q14 15 13.5 36.5t-15.5 35.5q-12 11 -17.5 28t-8.5 35h183l-47 -143v0zM1946 1331h-52q-21 0 -36 -15t-15 -36v-102q0 -22 -15 -37t-36 -15h-409v0v0h-1005
q-10 27 -21 52.5t-22 48.5l-12 26t-11 24l78 157h327v-154q0 -21 15 -36t36 -15h614q22 0 37 15t15 36v154h512v-103v0zM461 1229q-10 0 -19.5 4t-16.5 11q-8 7 -11.5 16.5t-3.5 19.5t3.5 19.5t11.5 16.5q7 7 16.5 11t19.5 4t19.5 -4t16.5 -11t11 -16.5t4 -19.5t-4 -19.5
t-11 -16.5t-16.5 -11t-19.5 -4v0zM358 410q-10 0 -19.5 3.5t-16.5 11.5q-7 7 -11 16.5t-4 19.5t4 19.5t11 16.5t16.5 11t19.5 4q11 0 20 -4t17 -11q7 -7 11 -16.5t4 -19.5t-4 -19.5t-11 -16.5q-8 -8 -17 -11.5t-20 -3.5v0z" />
    <glyph glyph-name="uniE632" unicode="bottle" 
d="M1434 1382q0 56 -31 113.5t-77 88.5l-109 73q5 6 8.5 14.5t3.5 18.5v204q0 22 -15 37t-36 15h-410q-21 0 -36 -15t-15 -37v-204q0 -10 3 -18.5t9 -14.5l-109 -73q-46 -31 -77 -88.5t-31 -113.5v-102q0 -29 10.5 -55.5t28.5 -46.5q-18 -21 -28.5 -47t-10.5 -56
q0 -29 10.5 -55.5t28.5 -46.5q-18 -21 -28.5 -47t-10.5 -56q0 -29 10.5 -55.5t28.5 -46.5q-18 -20 -28.5 -46.5t-10.5 -55.5q0 -30 10.5 -56t28.5 -47q-18 -20 -28.5 -46.5t-10.5 -55.5q0 -30 10.5 -56t28.5 -47q-18 -20 -28.5 -46.5t-10.5 -55.5v-205q0 -63 45 -108
t109 -45h614q64 0 109 45t45 108v205q0 29 -10.5 55.5t-29.5 46.5q19 21 29.5 47t10.5 56q0 29 -10.5 55.5t-29.5 46.5q19 21 29.5 47t10.5 56q0 29 -10.5 55.5t-29.5 46.5q19 20 29.5 46.5t10.5 55.5q0 30 -10.5 56t-29.5 47q19 20 29.5 46.5t10.5 55.5q0 30 -10.5 56
t-29.5 47q19 20 29.5 46.5t10.5 55.5v102v0zM819 1843h307v-102h-307v102v0zM614 1382q0 30 19 65.5t44 51.5l209 139h174l209 -139q24 -16 43 -51.5t19 -65.5v-102q0 -21 -15 -36t-36 -15h-614q-22 0 -37 15t-15 36v102v0zM1331 1075q0 -21 -15 -36t-36 -15h-614
q-22 0 -37 15t-15 36t15 36t37 15h614q21 0 36 -15t15 -36v0zM1331 870q0 -21 -15 -36t-36 -15h-614q-22 0 -37 15t-15 36q0 22 15 37t37 15h614q21 0 36 -15t15 -37v0zM1331 666q0 -22 -15 -37t-36 -15h-614q-22 0 -37 15t-15 37q0 21 15 36t37 15h614q21 0 36 -15t15 -36
v0zM1331 461q0 -21 -15 -36t-36 -15h-614q-22 0 -37 15t-15 36t15 36t37 15h614q21 0 36 -15t15 -36v0zM1331 51q0 -21 -15 -36t-36 -15h-614q-22 0 -37 15t-15 36v205q0 21 15 36t37 15h614q21 0 36 -15t15 -36v-205v0z" />
    <glyph glyph-name="uniE633" unicode="droplet" 
d="M1024 -102q-62 0 -121.5 12t-114.5 36t-105 59.5t-93 81.5t-76.5 100.5t-56.5 115t-35 126t-12 134.5q0 113 23.5 211.5t61.5 188.5t88 175t103 171q41 66 82 134t79 141t70.5 153.5t57.5 170.5q4 17 18 27.5t31 10.5t31 -10.5t18 -27.5q25 -90 58 -170.5t70.5 -153.5
t78.5 -141t82 -135q54 -85 103.5 -170t88 -175t61.5 -188.5t23 -211.5q0 -69 -11.5 -134.5t-34 -126.5t-56 -115t-76.5 -100t-93 -81.5t-105.5 -59.5t-115 -36t-122.5 -12v0zM1024 1729q-26 -68 -56 -130.5t-62 -121t-65.5 -113.5t-67.5 -110q-52 -84 -99.5 -164t-83 -163
t-56.5 -172.5t-21 -191.5q0 -120 39 -223t107.5 -178.5t162 -118.5t202.5 -43t203 43t162.5 118.5t107.5 178.5t39 223q0 102 -21 191t-57 172t-83 163.5t-100 164.5q-33 54 -67 109.5t-66 114t-62 121t-56 130.5v0z" />
    <glyph glyph-name="uniE634" unicode="drop&#x2d;crossed" 
d="M1723 1626q-16 14 -37 12.5t-35 -17.5l-282 -323q-2 3 -3.5 5.5t-3.5 4.5q-41 67 -82 135t-78.5 141t-70.5 153.5t-58 170.5q-4 17 -18 27.5t-31 10.5t-31 -10.5t-18 -27.5q-25 -90 -57.5 -170.5t-70.5 -153.5t-79 -141t-82 -134q-53 -86 -103 -171t-88 -175
t-61.5 -188.5t-23.5 -211.5q0 -78 15.5 -152t44.5 -140l-253 -288q-13 -16 -12 -37.5t17 -35.5q8 -6 16.5 -9t17.5 -3q11 0 21 4t18 13l226 259q16 -23 33 -45t36 -42q43 -46 93 -81.5t105 -59.5t114.5 -36t121.5 -12q63 0 122.5 12t115 36t105.5 59.5t93 81.5t76.5 100
t56 115t34 126.5t11.5 134.5q0 96 -17 181.5t-46 164t-68 152t-82 146.5l303 346q14 16 12.5 37.5t-17.5 35.5v0zM513 563q0 102 21 191.5t56.5 172.5t83 163t99.5 164q34 55 67.5 110t65.5 113.5t62 121t56 130.5q26 -68 56 -130.5t62 -121t66 -114t67 -109.5
q6 -9 11.5 -18t11.5 -18l-753 -861q-15 48 -23.5 99.5t-8.5 106.5v0zM1536 563q0 -120 -39 -223t-107.5 -178.5t-162.5 -118.5t-203 -43q-70 0 -134 18t-119 51t-100.5 80t-79.5 105l763 872q39 -66 72 -131t57.5 -133.5t38.5 -142.5t14 -156v0z" />
    <glyph glyph-name="uniE635" unicode="droplet&#x33;" 
d="M1024 -102q-62 0 -121.5 12t-114.5 36t-105 59.5t-93 81.5t-76.5 100.5t-56.5 115t-35 126t-12 134.5q0 113 23.5 211.5t61.5 188.5t88 175t103 171q41 66 82 134t79 141t70.5 153.5t57.5 170.5q4 17 18 27.5t31 10.5t31 -10.5t18 -27.5q25 -90 58 -170.5t70.5 -153.5
t78.5 -141t82 -135q54 -85 103.5 -170t88 -175t61.5 -188.5t23 -211.5q0 -69 -11.5 -134.5t-34 -126.5t-56 -115t-76.5 -100t-93 -81.5t-105.5 -59.5t-115 -36t-122.5 -12v0zM1024 1729q-26 -68 -56 -130.5t-62 -121t-65.5 -113.5t-67.5 -110q-52 -84 -99.5 -164t-83 -163
t-56.5 -172.5t-21 -191.5q0 -120 39 -223t107.5 -178.5t162 -118.5t202.5 -43t203 43t162.5 118.5t107.5 178.5t39 223q0 102 -21 191t-57 172t-83 163.5t-100 164.5q-33 54 -67 109.5t-66 114t-62 121t-56 130.5v0zM1024 205q-60 0 -114 23.5t-96 68.5q-47 50 -71.5 118.5
t-24.5 147.5q0 21 15 36t36 15t36 -15t15 -36q0 -59 17.5 -110t51.5 -86q27 -29 62 -44.5t73 -15.5q11 0 21.5 1.5t20.5 3.5q21 5 39 -6.5t23 -32.5q4 -20 -7 -38t-32 -23q-16 -4 -32 -5.5t-33 -1.5v0z" />
    <glyph glyph-name="uniE636" unicode="snow" 
d="M1792 922h-240l79 126q11 18 6 38.5t-23 32.5q-18 11 -38.5 6t-31.5 -23l-85 -135l-163 262h189q21 0 36 15t15 36t-15 36t-36 15h-193l135 230q10 19 5 39.5t-24 30.5q-18 11 -38.5 5.5t-31.5 -23.5l-136 -234l-83 133q-12 18 -32.5 22.5t-38.5 -6.5t-22.5 -31.5
t6.5 -38.5l79 -127h-276l79 127q11 18 6.5 38.5t-22.5 31.5t-39 6.5t-32 -22.5l-83 -133l-137 234q-10 18 -30.5 23.5t-39.5 -5.5q-18 -10 -23.5 -30.5t5.5 -39.5l134 -230h-192q-21 0 -36 -15t-15 -36t15 -36t36 -15h189l-164 -262l-84 135q-11 18 -32 23t-39 -6
q-18 -12 -22.5 -32.5t6.5 -38.5l79 -126h-240q-22 0 -37 -15t-15 -37q0 -21 15 -36t37 -15h240l-79 -126q-11 -18 -6.5 -39t22.5 -32q7 -4 13.5 -6t13.5 -2q13 0 25 6.5t19 17.5l84 136l164 -262h-189q-21 0 -36 -15t-15 -36t15 -36t36 -15h192l-134 -231
q-11 -18 -5.5 -38.5t23.5 -31.5q6 -3 13 -5t13 -2q13 0 25 7t19 19l137 234l83 -133q7 -12 19 -18t24 -6q7 0 14 2t14 6q18 11 22.5 31.5t-6.5 38.5l-79 127h276l-79 -127q-11 -18 -6.5 -38.5t22.5 -31.5q6 -4 13 -6t14 -2q13 0 24.5 6t19.5 18l83 133l136 -234
q7 -12 19 -19t25 -7q7 0 13.5 2t12.5 5q19 11 24 31.5t-5 38.5l-135 231h193q21 0 36 15t15 36t-15 36t-36 15h-189l163 262l85 -136q7 -11 18.5 -17.5t24.5 -6.5q7 0 14 2t13 6q18 11 23 32t-6 39l-79 126h240q21 0 36 15t15 36q0 22 -15 37t-36 15v0zM1175 512h-404
l-224 358l224 359h404l224 -359l-224 -358v0z" />
    <glyph glyph-name="uniE637" unicode="snow&#x32;" 
d="M1894 922h-183l117 117q15 15 15 36t-15 36t-36 15t-36 -15l-190 -189h-470l308 307h286q21 0 36 15t15 36t-15 36t-36 15h-184l169 169q15 15 15 36t-15 36t-36.5 15t-36.5 -15l-168 -168v183q0 21 -15 36t-37 15q-21 0 -36 -15t-15 -36v-286l-307 -307v470l190 189
q15 15 15 36.5t-15 36.5t-36.5 15t-36.5 -15l-117 -118v184q0 21 -15 36t-36 15t-36 -15t-15 -36v-184l-118 118q-15 15 -36 15t-36 -15t-15 -36.5t15 -36.5l190 -189v-470l-308 307v286q0 21 -15 36t-36 15t-36 -15t-15 -36v-183l-169 168q-15 15 -36 15t-36 -15t-15 -36
t15 -36l169 -169h-184q-21 0 -36 -15t-15 -36t15 -36t36 -15h286l307 -307h-469l-190 189q-15 15 -36.5 15t-36.5 -15t-15 -36t15 -36l118 -117h-184q-21 0 -36 -15t-15 -37q0 -21 15 -36t36 -15h184l-118 -117q-15 -15 -15 -36.5t15 -36.5q8 -7 17.5 -11t19.5 -4
q9 0 18.5 4t17.5 11l190 190h469l-307 -307h-286q-21 0 -36 -15t-15 -36t15 -36t36 -15h184l-169 -169q-15 -15 -15 -36t15 -36q7 -8 16.5 -11.5t19.5 -3.5t19.5 3.5t16.5 11.5l169 168v-183q0 -22 15 -37t36 -15t36 15t15 37v286l308 307v-470l-190 -190q-15 -15 -15 -36
t15 -36t36 -15t36 15l118 117v-183q0 -21 15 -36t36 -15t36 15t15 36v183l117 -117q8 -8 17.5 -11.5t19.5 -3.5q9 0 18.5 3.5t17.5 11.5q15 15 15 36t-15 36l-190 190v470l307 -307v-286q0 -22 15 -37t36 -15q22 0 37 15t15 37v183l168 -168q8 -8 17.5 -11.5t18.5 -3.5
q10 0 19.5 3.5t17.5 11.5q15 15 15 36t-15 36l-169 169h184q21 0 36 15t15 36t-15 36t-36 15h-286l-308 307h470l190 -190q7 -7 16.5 -11t19.5 -4t19.5 4t16.5 11q15 15 15 36.5t-15 36.5l-117 117h183q22 0 37 15t15 36q0 22 -15 37t-37 15v0z" />
    <glyph glyph-name="uniE638" unicode="flame" 
d="M1447 1884q-7 13 -12.5 23.5t-10.5 16.5q-12 17 -32 21t-37 -7t-22 -30.5t4 -37.5q5 -8 9.5 -16.5t8.5 -16.5q17 -36 38.5 -95t41 -133.5t33 -161.5t15.5 -178q-18 38 -40 74t-46.5 70t-50 66t-49.5 62q-38 46 -72 90t-58 86t-35.5 84.5t-5.5 85.5q1 11 -2 22t-10 19
t-17.5 13t-21.5 5v0v0q-39 0 -78.5 -14t-77 -35.5t-71.5 -48.5t-62 -52q-36 -33 -70.5 -70.5t-67 -79t-62.5 -85.5t-56 -89q-8 -13 -15 -26.5t-14 -26.5q9 62 21.5 124.5t27.5 121.5t30.5 112.5t30.5 98.5q5 13 3 25.5t-9 22.5t-18 16t-24 6q-14 0 -26 -7.5t-19 -19.5
q-115 -212 -194.5 -369.5t-128.5 -292t-71 -262t-22 -278.5q0 -83 15.5 -161.5t45 -151.5t73 -139t99.5 -122q29 -29 61 -55t66 -48.5t71.5 -41.5t76.5 -34q41 -17 84.5 -29.5t89 -20.5t93 -12t96.5 -4t96 4t92.5 12t89 20.5t85.5 29.5q39 15 76 34t71.5 41.5t66.5 48.5
t61 55q56 56 99.5 122t73 139t44.5 151.5t15 161.5q0 150 -21.5 276.5t-69 258t-122.5 282.5t-183 350v0zM619 1421q24 41 51.5 82t58 79.5t62.5 73t64 64.5q46 42 88.5 70.5t78.5 41.5q4 -48 22 -93.5t44.5 -89t60 -86.5t68.5 -86q63 -78 118.5 -155t80.5 -163.5t8.5 -187
t-97.5 -223.5q-35 -43 -77 -79.5t-92 -67.5q24 44 40.5 91.5t23.5 97t6 101t-12 102.5q-17 77 -53 146t-90 126q-29 30 -62 56t-70 47t-77 37t-84 27q-18 5 -34.5 -3.5t-24.5 -25.5q-7 -17 -2 -35t21 -28q24 -17 42.5 -51.5t27.5 -77t8.5 -89.5t-13.5 -88q-17 -57 -51 -85.5
t-83 -28.5q-9 0 -18.5 1t-19.5 3q-34 6 -59.5 24t-43.5 49l-4 8t-5 9h1q-14 32 -14.5 76t12 96t37.5 111.5t62 123.5v0zM973 0q-189 0 -333 62t-240.5 163t-145.5 229.5t-49 262.5q0 105 10.5 196.5t34.5 182t63 186.5t96 210q-17 -95 -23 -176.5t-1.5 -150t19 -124
t38.5 -96.5q30 -51 73.5 -81t99.5 -41q14 -2 28 -3.5t28 -1.5q84 0 144.5 49t87.5 137q16 53 17.5 114.5t-11.5 120.5q-3 9 -5 18t-5 17q42 -25 77 -57t62.5 -70.5t47 -82.5t29.5 -92q15 -67 9.5 -133t-28 -127t-61.5 -114.5t-94 -96.5q-14 -11 -18 -29.5t5 -34.5
q8 -17 25.5 -24t34.5 -1q96 30 176 73.5t145.5 99t116 123.5t84.5 148q26 59 43 123.5t25 134t7 144.5t-10 155q45 -96 76.5 -180.5t51.5 -167t29 -167.5t9 -181q0 -134 -49 -262.5t-146 -229.5t-240.5 -163t-332.5 -62v0z" />
    <glyph glyph-name="uniE639" unicode="fire&#x32;" 
d="M1792 1024h-71l-87 176q-7 13 -19.5 21t-26.5 8h-410q-22 0 -37 -15t-15 -36v-154h-124l-394 684q-11 18 -31.5 23.5t-38.5 -4.5l-355 -205q-18 -11 -23.5 -31.5t4.5 -38.5l410 -710q7 -12 19 -18.5t25 -6.5q7 0 13.5 1.5t12.5 5.5l278 160v-833q0 -21 15 -36t36 -15h819
q21 0 36 15t15 36v922q0 21 -15 36t-36 15v0zM1741 410h-103v307h103v-307v0zM1229 1126h327l51 -102h-378v102v0zM637 838l-359 621l266 153l359 -620l-266 -154v0zM1024 102v820h665h0.5h0.5v0v0h51v-103h-154q-21 0 -36 -15t-15 -36v-410q0 -21 15 -36t36 -15h154v-205
h-717v0zM1587 1331q-57 0 -87.5 22t-44.5 45q-25 43 -21 109.5t39 157.5q22 61 45 105.5t25 46.5q6 12 18 19t26 7t26 -7t19 -19q1 -2 24 -46.5t46 -105.5q34 -91 38.5 -157.5t-21.5 -109.5q-13 -23 -43.5 -45t-88.5 -22v0zM1587 1675q-5 -11 -9.5 -23t-9.5 -24
q-35 -94 -32 -132.5t8 -45.5q2 -4 10 -10t33 -6q26 0 34 6t10 10q4 7 7 46t-32 133q-5 12 -9.5 23.5t-9.5 22.5v0z" />
    <glyph glyph-name="uniE63A" unicode="knife" 
d="M358 205q-10 0 -19.5 4t-16.5 11t-11 16.5t-4 19.5t4 19.5t11 16.5t16.5 11t19.5 4q11 0 20 -4t17 -11q7 -7 11 -16.5t4 -19.5t-4 -19.5t-11 -16.5q-8 -7 -17 -11t-20 -4v0zM1690 205q-11 0 -20 4t-17 11q-7 7 -11 16.5t-4 19.5t4 19.5t11 16.5q8 7 17 11t20 4
q10 0 19.5 -4t16.5 -11t11 -16.5t4 -19.5t-4 -19.5t-11 -16.5t-16.5 -11t-19.5 -4v0zM1690 819h-787l163 350q50 105 53 217t-34 213.5t-111 185t-180 132.5q-5 2 -10 3.5t-10 1.5q-8 0 -16.5 -2.5t-15.5 -7.5q-2 -2 -4 -3.5t-3 -3.5q-2 -2 -3.5 -4t-3.5 -4q0 -1 -0.5 -2
l-1.5 -3l-692 -1485h-1v0q-16 -35 -24.5 -73t-8.5 -78q0 -74 28 -139.5t77 -114t114 -76.5t139 -28h1332q74 0 139 28t114 76.5t77 114t28 139.5v205q0 74 -28 139t-77 114t-114 77t-139 28v0zM1690 717q46 0 87.5 -15.5t75 -43t56.5 -65.5t32 -81q-49 47 -113.5 74.5
t-137.5 27.5h-882l48 103h834v0zM974 1212l-279 -598h-337q-33 0 -64.5 -5.5t-61.5 -16.5l564 1208q74 -45 125 -112.5t75.5 -146.5t19.5 -164t-42 -165v0zM1690 0h-1332q-53 0 -99.5 20t-81 55t-55 81.5t-20.5 99.5t20.5 99.5t55 81.5t81 55t99.5 20h369h0.5h0.5v0v0h962
q53 0 99.5 -20t81 -55t55 -81.5t20.5 -99.5t-20.5 -99.5t-55 -81.5t-81 -55t-99.5 -20v0z" />
    <glyph glyph-name="uniE63B" unicode="dagger" 
d="M1792 1638q-10 0 -19.5 4t-16.5 11q-7 8 -11 17t-4 20q0 10 4 19.5t11 16.5t16.5 11t19.5 4t19.5 -4t16.5 -11t11 -16.5t4 -19.5q0 -11 -4 -20t-11 -17q-7 -7 -16.5 -11t-19.5 -4v0zM1763 1332q59 4 111.5 29.5t91 67t60.5 95.5t22 114q0 64 -24 120t-66 97.5t-98 66
t-119 24.5q-61 0 -115 -22.5t-95 -61t-66.5 -90.5t-30.5 -112l-354 -354l-71 70q15 -15 36 -15t36 15q22 22 33.5 50t11.5 59t-11.5 59t-33.5 49q-45 45 -108.5 45t-108.5 -45q-22 -21 -33.5 -49t-11.5 -59t11.5 -59t33.5 -50l139 -139l-700 -569q-38 -32 -75 -85.5
t-53 -100.5l-172 -517q-5 -14 -1.5 -28t13.5 -24q7 -8 16.5 -11.5t19.5 -3.5q4 0 8 0.5t8 1.5l518 173q46 15 100 52t85 76l569 700l140 -139q21 -22 49 -33.5t59 -11.5t59 11.5t50 33.5t33.5 50t11.5 58q0 31 -11.5 59t-33.5 50t-50 33.5t-59 11.5t-59 -11.5t-49 -33.5
q-15 -15 -15 -36t14 -36l-70 70l355 355v0zM1551 907q7 7 16.5 11t19.5 4t19.5 -4t16.5 -11q8 -8 11.5 -17t3.5 -20q0 -10 -3.5 -19.5t-11.5 -16.5q-7 -7 -16.5 -11t-19.5 -4t-19.5 4t-16.5 11l-72 72q15 -14 36 -14t36 15v0zM1244 1141v0v0v0v0l-92 92l129 129l184 -183
l-129 -129l-92 91v0zM1741 1843q42 0 79.5 -16t65 -44t44 -65t16.5 -80q0 -42 -16.5 -79.5t-44 -65t-65 -43.5t-79.5 -16q-43 0 -80 16t-65 43.5t-44 65t-16 79.5q0 43 16 80t44 65t65 44t80 16v0zM1636 1350l-98 -98l-184 183l98 98q23 -63 71.5 -111.5t112.5 -71.5v0z
M922 1485q0 10 3.5 19.5t11.5 16.5q7 7 16.5 11t19.5 4t19.5 -4t16.5 -11t11 -16.5t4 -19.5t-4 -19.5t-11 -16.5q-15 -15 -15 -36.5t15 -36.5l-72 73q-8 7 -11.5 16.5t-3.5 19.5v0zM691 265q-23 -27 -64.5 -55.5t-74.5 -39.5l-420 -140l140 420q11 33 40 74.5t56 63.5
l708 576l59 -59l-710 -710q-15 -15 -15 -36.5t15 -36.5q7 -7 16.5 -11t19.5 -4t19.5 4t16.5 11l711 711l59 -59l-576 -709v0z" />
    <glyph glyph-name="uniE63C" unicode="napkin" 
d="M1997 780l-113 226q-26 51 -82 85.5t-112 34.5h-184q34 99 74 195t74 172.5t57.5 124t23.5 49.5q7 13 5.5 27t-9.5 26q-2 2 -25.5 28t-68.5 51t-112 38.5t-155 -8.5q-59 -15 -103 -46t-80 -62q-41 -35 -77.5 -59t-85.5 -24q-52 0 -115 15.5t-127 34.5q-69 19 -138 36
t-132 17q-75 0 -116 -23.5t-59 -48.5q-21 -28 -25.5 -52t-4.5 -30q0 -3 0.5 -6t1.5 -7q1 -3 9.5 -33.5t28.5 -87t53 -138.5t82 -189h-124q-56 0 -112 -34.5t-82 -84.5l-113 -227q-21 -43 -36 -106t-15 -111v-409q0 -64 45 -109t109 -45h1740q64 0 109 45t45 109v409
q0 48 -15 111t-36 106v0zM419 1608q11 15 34.5 22.5t58.5 7.5q52 0 115 -15.5t127 -33.5q69 -19 138 -36t132 -17q77 0 130.5 34.5t98.5 72.5q33 28 66.5 52t75.5 35q91 22 149 -2.5t84 -47.5q-20 -42 -60 -128t-83.5 -192.5t-83.5 -222t-61 -215.5h-106q7 37 19.5 85.5
t26 97t27 91t22.5 68.5q6 20 -3.5 39t-29.5 26q-20 6 -39 -3.5t-26 -29.5q-3 -10 -16.5 -52t-29.5 -97.5t-31.5 -116t-22.5 -108.5h-228q-16 38 -31.5 84.5t-27.5 87t-19 68t-7 28.5q-5 21 -23.5 31.5t-38.5 5.5q-21 -5 -32 -23t-6 -39q1 -2 7 -25.5t16 -58.5t23.5 -77
t28.5 -82h-96q-75 144 -127.5 260t-86 201t-50.5 137.5t-23 70.5q1 3 3 7.5t6 9.5v0zM256 961q12 25 43.5 44t58.5 19h173q12 -25 24.5 -50.5t26.5 -51.5h-19q-21 0 -36 -15t-15 -37q0 -21 15 -36t36 -15h922q21 0 36 15t15 36q0 22 -15 37t-36 15h-40q5 24 12 50t15 52h218
q27 0 58.5 -19t43.5 -44l113 -227q2 -4 4 -8.5t5 -9.5q-5 0 -10 0.5t-10 0.5h-1740q-5 0 -10 -0.5t-10 -0.5q3 5 5 9.5t4 8.5l113 227v0zM1946 154q0 -22 -15 -37t-37 -15h-1740q-22 0 -37 15t-15 37v409q0 21 15 36t37 15h1740q22 0 37 -15t15 -36v-409v0z" />
    <glyph glyph-name="uniE63D" unicode="toilet&#x2d;paper" 
d="M563 922q-21 0 -56.5 18.5t-63.5 88.5q-16 40 -24.5 92t-8.5 108t8.5 107.5t24.5 92.5q28 70 63.5 88.5t56.5 18.5q22 0 57 -18.5t63 -88.5q16 -41 25 -92.5t9 -107.5t-9 -108t-25 -92q-28 -70 -63 -88.5t-57 -18.5v0zM563 1432q-12 -10 -31.5 -61.5t-19.5 -141.5
t19.5 -142t31.5 -62q13 10 32 62t19 142t-19 141.5t-32 61.5v0zM1485 1843h-922q-75 0 -140.5 -47.5t-114 -130.5t-76 -195t-27.5 -241v-25.5t1 -25.5l-1 -1127q0 -13 6.5 -24.5t17.5 -18.5q6 -4 13 -6t14 -2q6 0 11.5 1.5t11.5 3.5l182 91l182 -91q11 -5 23 -5t22 5l182 91
l182 -91q11 -5 23 -5t23 5l182 91l182 -91q12 -6 25 -5t25 8q11 7 17.5 18.5t6.5 24.5v569q66 16 122 68.5t97.5 133.5t64.5 185t23 222q0 129 -27.5 241t-76 195t-114 130.5t-140.5 47.5v0zM391 1603q36 65 81 101.5t91 36.5t91.5 -36.5t80.5 -101.5q21 -38 36.5 -81
t26 -90.5t16 -98.5t5.5 -104t-5.5 -104.5t-16 -99t-26 -90.5t-36.5 -80q-35 -66 -80.5 -102t-91.5 -36t-91 36t-81 102q-18 33 -32.5 70.5t-24.5 79t-16.5 85.5t-9.5 91v98q3 46 9.5 90t17 85t24.5 78.5t32 70.5v0zM1303 199q-11 6 -23 6t-23 -6l-182 -91l-182 91
q-11 6 -23 6t-23 -6l-181 -91l-182 91q-11 6 -23 6t-23 -6l-131 -65l1 660q24 -42 53 -75.5t61 -56.5t67.5 -35.5t73.5 -12.5h871v-480l-131 65v0zM1657 855q-36 -66 -81 -102t-91 -36h-721q36 41 65 95.5t49.5 120t32 140.5t11.5 156t-11.5 155.5t-32 140t-49.5 120.5
t-65 96h721q46 0 91 -36.5t81 -101.5q20 -38 36 -81t26.5 -90.5t16 -98.5t5.5 -104t-5.5 -104.5t-16 -99t-26.5 -90.5t-36 -80v0z" />
    <glyph glyph-name="uniE63E" unicode="poop" 
d="M1834 652q55 49 83.5 104.5t28.5 113.5q0 40 -13 78.5t-38 76t-61.5 72.5t-83.5 66q-26 18 -55 34t-60 31l2 26t1 26q0 50 -15.5 112.5t-64 117t-139.5 91.5t-241 37q-53 0 -103.5 19.5t-50.5 83.5q0 35 32 67.5t48 43.5q14 9 19.5 25t0.5 32t-18.5 26.5t-30.5 10.5
q-60 0 -120.5 -10t-118 -28.5t-112 -45.5t-101.5 -61q-49 -35 -87.5 -75.5t-65.5 -85.5q-30 -50 -45 -101.5t-15 -104.5q0 -23 1.5 -44.5t5.5 -43.5q-65 -31 -119.5 -72.5t-94.5 -89.5q-49 -59 -75 -126t-26 -136q0 -43 10 -87t29 -86q-35 -32 -61 -66.5t-44 -71t-27 -74.5
t-9 -76q0 -59 20.5 -115t60 -108t98 -98.5t133.5 -86.5q72 -37 154.5 -66t173 -49t187.5 -30t197 -10t196.5 8t186.5 23.5t172 39t153 53.5q76 32 135 70t99.5 81t61 89.5t20.5 95.5q0 40 -14 79.5t-41 76.5t-67 71.5t-92 66.5v0zM1692 116q-67 -28 -144 -49.5t-162 -36.5
t-176 -22.5t-186 -7.5q-94 0 -185 9.5t-175.5 27.5t-161 45t-142.5 62q-62 33 -110 70t-81 77.5t-50 83t-17 86.5q0 60 28 109.5t64 86.5q8 -11 17 -22.5t19 -22.5q30 -35 66.5 -65.5t77 -56t84.5 -45.5t91 -33q4 -1 7.5 -1.5t6.5 -0.5q17 0 31 10t18 27q6 20 -4 38.5
t-31 24.5q-79 23 -147.5 66t-118.5 98t-78 119t-28 129q0 47 16.5 92.5t47 87t75 78t99.5 65.5q20 -56 51 -106t70.5 -91.5t86.5 -73t100 -49.5q4 -2 8.5 -2.5t8.5 -0.5q16 0 29.5 9t18.5 25q7 20 -2 39t-29 26q-58 21 -108 62.5t-86.5 97t-57.5 120.5t-21 133q0 38 11 76.5
t33 74.5t54 69.5t73 63.5q57 41 124.5 70t139.5 43q-11 -20 -18 -42.5t-7 -47.5q0 -37 13.5 -74t43.5 -66t79 -47t120 -18q98 0 170 -19.5t116 -57.5q36 -32 54 -76.5t18 -102.5v-6v-6q-58 21 -120 36.5t-128 26.5q-21 3 -38 -9.5t-21 -33.5q-3 -21 9.5 -38t33.5 -21
q62 -9 120.5 -24t112 -34t101 -42.5t87.5 -50.5q73 -48 111.5 -102t38.5 -106t-33.5 -94.5t-74.5 -72.5q-47 21 -99.5 39t-109.5 32.5t-117 26t-123 18.5q-21 2 -37.5 -11t-19.5 -34q-2 -21 11 -37.5t34 -19.5q73 -8 141.5 -22t131 -32t118.5 -41t103 -50q86 -49 132 -104
t46 -110q0 -32 -17 -64.5t-49.5 -63.5t-80 -60t-107.5 -54v0z" />
    <glyph glyph-name="uniE63F" unicode="rain" 
d="M1588 1588q-61 62 -132.5 109.5t-149.5 80t-162 49t-171 16.5t-171 -16.5t-162.5 -49t-149.5 -80t-133 -109.5q-61 -61 -108.5 -132.5t-80 -149.5t-49.5 -162t-17 -171q0 -21 15 -36t37 -15q21 0 36 15t15 36q0 63 45 108t108 45q64 0 109 -45t45 -108q0 -21 15 -36
t36 -15t36 15t15 36q0 63 45 108t109 45t109 -45t45 -108v-819q0 -22 -15 -37t-37 -15q-21 0 -36 15t-15 37q0 21 -15 36t-36 15t-36 -15t-15 -36q0 -64 45 -109t108 -45q64 0 109 45t45 109v819q0 63 45 108t109 45q63 0 108 -45t45 -108q0 -21 15 -36t36 -15q22 0 37 15
t15 36q0 63 45 108t108 45q64 0 109 -45t45 -108q0 -21 15 -36t36 -15t36 15t15 36q0 87 -16.5 171t-49 162t-80 149.5t-109.5 132.5v0zM1587 1229q-63 0 -116.5 -28t-88.5 -75q-35 47 -88.5 75t-115.5 28q-63 0 -116.5 -28t-88.5 -75q-35 47 -88.5 75t-116.5 28t-116.5 -28
t-88.5 -75q-35 47 -88.5 75t-116.5 28q-32 0 -62 -8t-57 -22q36 118 107 217t167 171.5t213.5 113t246.5 40.5t246.5 -40.5t213.5 -113t166.5 -171.5t107.5 -217q-27 14 -57 22t-63 8v0z" />
    <glyph glyph-name="uniE640" unicode="rain&#x32;" 
d="M1691 1281q-62 62 -133 109.5t-149.5 80t-162.5 49t-171 16.5t-171 -16.5t-162 -49t-149.5 -80t-132.5 -109.5q-62 -62 -109.5 -133t-80 -149t-49 -162t-16.5 -171q0 -22 15 -37t36 -15t36 15t15 37q0 63 45 108t109 45q63 0 108 -45t45 -108q0 -22 15 -37t37 -15
q21 0 36 15t15 37q0 63 45 108t108 45q64 0 109 -45t45 -108v-615q0 -21 -15 -36t-36 -15t-36 15t-15 36t-15 36t-37 15q-21 0 -36 -15t-15 -36q0 -63 45 -108t109 -45q63 0 108 45t45 108v615q0 63 45 108t109 45t109 -45t45 -108q0 -22 15 -37t36 -15t36 15t15 37
q0 63 45 108t109 45q63 0 108 -45t45 -108q0 -22 15 -37t36 -15q22 0 37 15t15 37q0 87 -17 171t-49.5 162t-80 149t-108.5 133v0zM1690 922q-63 0 -116.5 -28t-88.5 -75q-35 47 -88.5 75t-116.5 28t-116.5 -28t-88.5 -75q-35 47 -88.5 75t-116.5 28q-62 0 -115.5 -28
t-88.5 -75q-35 47 -88.5 75t-116.5 28q-33 0 -63 -8t-57 -22q37 117 107.5 216.5t166.5 171.5t213.5 113t246.5 41t246.5 -41t213.5 -113t167 -171.5t107 -216.5q-27 14 -57 22t-62 8v0zM1792 1331q-6 0 -11.5 1.5t-11.5 4.5q-19 9 -25.5 29t2.5 39l103 205q9 19 29 25.5
t39 -2.5t26 -29.5t-3 -39.5l-102 -204q-7 -14 -19.5 -21.5t-26.5 -7.5v0zM1382 1536q-5 0 -11 1.5t-11 3.5q-19 10 -26 30t3 39l102 205q9 19 29.5 25.5t39.5 -2.5q19 -10 25.5 -30t-2.5 -39l-103 -205q-7 -13 -19.5 -20.5t-26.5 -7.5v0zM666 1536q-6 0 -12 1.5t-11 3.5
q-19 10 -26 30t3 39l102 205q10 19 30 25.5t39 -2.5q19 -10 25.5 -30t-2.5 -39l-103 -205q-6 -13 -18.5 -20.5t-26.5 -7.5v0zM154 1229q-6 0 -12 1t-11 4q-19 10 -26 30t3 39l102 205q10 19 30 25.5t39 -2.5q19 -10 25.5 -30t-2.5 -39l-103 -205q-6 -13 -18.5 -20.5
t-26.5 -7.5v0zM358 1638q-5 0 -11 1.5t-11 4.5q-19 9 -26 29.5t3 38.5l102 205q9 19 29.5 26t39.5 -3q19 -9 25.5 -29.5t-2.5 -38.5l-103 -205q-7 -14 -19.5 -21.5t-26.5 -7.5v0zM1690 1638q-6 0 -12 1.5t-11 4.5q-19 9 -26 29.5t3 38.5l102 205q10 19 30 26t39 -3
q19 -9 25.5 -29.5t-2.5 -38.5l-103 -205q-6 -14 -18.5 -21.5t-26.5 -7.5v0zM1075 1638q-6 0 -11.5 1.5t-11.5 4.5q-19 9 -25.5 29.5t2.5 38.5l103 205q9 19 29.5 26t38.5 -3q19 -9 26 -29.5t-3 -38.5l-102 -205q-7 -14 -19.5 -21.5t-26.5 -7.5v0z" />
    <glyph glyph-name="uniE641" unicode="rain&#x33;" 
d="M256 1024v0v0q-51 0 -98 19.5t-83 55.5q-37 37 -56 84.5t-19 96.5t19 96.5t56 84.5q21 21 54 41.5t75 41t91 41t103 43.5q62 25 124.5 52t120.5 55q14 8 30.5 5t28.5 -14q11 -12 14 -28.5t-5 -30.5q-28 -58 -55 -120.5t-52 -124.5q-23 -54 -43.5 -103t-41 -91t-41 -75
t-41.5 -54q-36 -36 -83 -55.5t-98 -19.5v0zM561 1585l-62 -26l-62 -26q-46 -19 -91 -38t-84 -37.5t-69 -36t-46 -32.5q-45 -45 -45 -109t45 -109q22 -21 50 -33t59 -12t59 12t50 33q15 16 32.5 46t36 69t37.5 84t38 91l26 62l26 62v0zM1587 102v0v0q-51 0 -98 19.5t-83 55.5
q-37 38 -56 85t-19 96.5t19 96.5t56 84q21 22 54 42t75 40.5t91 41.5t103 43q62 26 125 52.5t120 55.5q15 7 31 4.5t28 -14.5q12 -11 14.5 -27.5t-4.5 -31.5q-29 -57 -56 -120t-52 -125q-22 -53 -43 -102.5t-41.5 -91t-41 -74.5t-41.5 -55q-36 -36 -83 -55.5t-98 -19.5v0z
M1892 663l-62 -26l-62 -26q-46 -19 -91 -37.5t-83.5 -37t-69 -36t-45.5 -33.5q-45 -45 -45 -108.5t45 -108.5q21 -22 49 -33.5t59 -11.5t59 11.5t50 33.5q16 16 33.5 46t35.5 69t37 84l38 90l26 62l26 62v0zM1382 1229v0v0q-51 0 -97.5 19.5t-83.5 55.5q-37 37 -55.5 84.5
t-18.5 96.5t18.5 96t55.5 85q22 21 55 41.5t74.5 41t91 41t102.5 42.5q62 26 125 53t120 55q15 8 31.5 5t27.5 -14q12 -12 14.5 -28.5t-4.5 -30.5q-29 -58 -55.5 -120.5t-52.5 -125.5q-22 -53 -43 -102t-41.5 -91t-40.5 -75t-42 -54q-36 -36 -82.5 -55.5t-98.5 -19.5v0z
M1687 1790q-31 -14 -62 -27t-62 -25l-90 -38t-84 -37.5t-69 -36t-46 -33.5q-45 -45 -45 -108.5t45 -108.5q22 -22 50 -33.5t58 -11.5q31 0 59 11.5t50 33.5q16 16 33.5 46t36 69t37 84t37.5 91q13 30 26 61.5t26 62.5v0zM461 -102v0v0q-51 0 -98 19t-83 56q-38 37 -56.5 84
t-18.5 96.5t18.5 96.5t56.5 85q21 21 54 41.5t75 40.5t91 41t102 43q63 26 125.5 52.5t120.5 55.5q14 7 30.5 4.5t28.5 -14.5q11 -11 14 -27.5t-5 -31.5q-28 -57 -55 -120t-53 -125q-22 -53 -42.5 -102.5t-41 -91t-41 -74.5t-41.5 -54q-36 -37 -83 -56t-98 -19v0zM766 459
q-31 -14 -62.5 -27t-61.5 -26q-46 -18 -91 -37t-84 -37.5t-69 -36t-46 -33.5q-45 -45 -45 -108.5t45 -108.5q22 -22 50 -33.5t59 -11.5t59 11.5t49 33.5q16 16 33.5 46t36 69t37.5 84l38 90q12 31 25 62.5t27 62.5v0z" />
    <glyph glyph-name="uniE642" unicode="tornado" 
d="M1024 1434q-99 0 -194 4t-184 11.5t-169.5 19t-150.5 26.5q-71 14 -126.5 31.5t-94.5 37.5q-52 26 -78.5 57.5t-26.5 68.5q0 36 26.5 67.5t78.5 57.5q39 20 94.5 37.5t126.5 32.5q70 14 150.5 25.5t169.5 19.5t184 12t194 4q47 0 93.5 -1t91.5 -3t89.5 -4.5t88.5 -6.5
q21 -2 34.5 -18t11.5 -37q-1 -21 -17.5 -35t-37.5 -12q-42 4 -85.5 6.5t-88 4t-89.5 2.5t-91 1q-92 0 -180.5 -3.5t-171.5 -10.5t-159 -17t-143 -23q-164 -32 -213 -62t-54 -37q5 -7 54 -37.5t213 -62.5q67 -13 143 -23t159 -17t171.5 -10.5t180.5 -3.5t180.5 3.5
t171.5 10.5t159 17t143 23q174 34 220 65.5t48 35.5q0 21 15 35.5t36 14.5t36 -15t15 -36q0 -37 -26.5 -68.5t-78.5 -57.5q-39 -20 -94.5 -37.5t-126.5 -31.5q-70 -15 -150.5 -26.5t-169.5 -19t-184 -11.5t-194 -4v0zM922 205q-49 0 -96 4t-91 12.5t-84.5 20.5t-75.5 27
q-80 36 -122.5 85.5t-42.5 106.5q0 21 15 36t36 15t36 -15t15 -36q0 -24 28 -50.5t77 -47.5q30 -14 65 -24t74 -17.5t80.5 -11t85.5 -3.5q43 0 85 3.5t80.5 11t73.5 17.5t66 24q48 21 76 47.5t28 50.5q0 21 15 36t36 15q22 0 37 -15t15 -36q0 -57 -43 -106.5t-123 -85.5
q-35 -15 -75 -27t-84 -20.5t-91.5 -12.5t-95.5 -4v0zM1024 -102q-86 0 -161 19.5t-130 54t-87 81.5t-32 101q0 21 15 36t37 15q21 0 36 -15t15 -36q0 -28 22.5 -55t63 -49t97 -36t124.5 -14t124.5 14t97 36t63 49t22.5 55q0 21 15 36t36 15q22 0 37 -15t15 -36
q0 -54 -32 -101t-87 -81.5t-130 -54t-161 -19.5v0zM922 819q-79 0 -154.5 4t-146.5 12t-135.5 19.5t-120.5 26.5q-65 17 -114.5 38t-82.5 45.5t-49.5 52t-16.5 58.5q0 21 15 36t37 15q21 0 36 -15t15 -36q0 -7 35 -35.5t152 -59.5q53 -14 114 -25t128.5 -18.5t139.5 -11
t148 -3.5q75 0 147.5 3.5t139.5 11t128.5 18.5t113.5 25q117 31 152 59.5t35 35.5q0 21 15 36t37 15q21 0 36 -15t15 -36q0 -31 -16.5 -58.5t-49.5 -52t-82.5 -45.5t-114.5 -38q-56 -15 -120.5 -26.5t-135 -19.5t-146.5 -12t-154 -4v0zM870 512q-63 0 -124.5 4t-118.5 12
t-109.5 19.5t-97.5 27.5q-133 44 -174 97.5t-41 95.5q0 21 15 36t36 15t36 -15t15 -36q0 -12 29.5 -40t115.5 -56q42 -14 90 -25t101 -18t110.5 -11t116.5 -4q60 0 117 4t110.5 11t101.5 18t90 25q86 28 115.5 56t29.5 40q0 21 15 36t36 15t36 -15t15 -36q0 -42 -41 -95.5
t-174 -97.5q-45 -16 -97.5 -27.5t-109.5 -19.5t-118.5 -12t-125.5 -4v0zM973 1126q-94 0 -184 4t-174.5 12t-161 19.5t-143.5 26.5q-78 17 -136.5 37.5t-97 45t-57.5 52.5t-19 59q0 22 15 37t36 15t36 -15t15 -36q4 -10 55.5 -40t193.5 -60q63 -13 135.5 -23t151.5 -17
t163.5 -10.5t171.5 -3.5t171.5 3.5t163.5 10.5t151 17t135 23q143 30 194.5 60t54.5 40q0 21 15 36t36 15q22 0 37 -15t15 -37q0 -31 -19.5 -59t-58 -52.5t-96.5 -45t-136 -37.5q-67 -15 -144 -26.5t-161 -19.5t-174.5 -12t-183.5 -4v0z" />
    <glyph glyph-name="uniE643" unicode="weather&#x33;" 
d="M1997 410h-819q-22 0 -37 15t-15 36t15 36t37 15h819q21 0 36 -15t15 -36t-15 -36t-36 -15v0zM1894 922h-870q-64 0 -119.5 24t-97.5 65.5t-66 97.5t-24 120q0 63 24 119t66 98t97.5 66t119.5 24q57 0 108.5 -20t92.5 -55.5t68 -83.5t35 -104q3 -21 20 -34t38 -10
t33.5 20t9.5 38q-10 73 -45 137.5t-91 112.5q-55 49 -125 75t-144 26q-85 0 -159.5 -32t-130 -87.5t-88 -130.5t-32.5 -159q0 -46 10 -89t28 -82.5t43.5 -73.5t57.5 -62h-497q-64 0 -109 45t-45 108q0 64 45 109t109 45q41 0 77 -20.5t56 -56.5q11 -18 31.5 -23.5t38.5 4.5
q18 11 23.5 31.5t-4.5 38.5q-35 59 -94.5 93.5t-127.5 34.5q-53 0 -99.5 -20t-81.5 -55t-55 -81.5t-20 -99.5t20 -99.5t55 -81t81.5 -55t99.5 -20.5h1638q22 0 37 15t15 36q0 22 -15 37t-37 15v0zM461 205q-53 0 -99.5 20t-81.5 55t-55 81.5t-20 99.5t20 99.5t55 81.5
t81.5 55t99.5 20h1126q21 0 36 -15t15 -36q0 -22 -15 -37t-36 -15h-1126q-64 0 -109 -45t-45 -108q0 -64 45 -109t109 -45q41 0 76.5 20.5t56.5 56.5q11 18 31 23.5t39 -4.5q18 -11 23.5 -31.5t-4.5 -38.5q-35 -59 -94.5 -93.5t-127.5 -34.5v0z" />
    <glyph glyph-name="uniE644" unicode="cooling" 
d="M973 0q-98 0 -191.5 18.5t-181 55t-167 89.5t-148.5 122t-122 148.5t-89.5 167t-55 181t-18.5 191.5q0 97 18.5 191t55 181.5t89.5 167t122 148.5t148.5 122t167 89t181 55t191.5 19q97 0 191 -19t181.5 -55t167 -89t148.5 -122t122 -148.5t89 -167t55 -181.5t19 -191
q0 -98 -19 -191.5t-55 -181t-89 -167t-122 -148.5t-148.5 -122t-167 -89.5t-181.5 -55t-191 -18.5v0zM973 1843q-180 0 -338.5 -68.5t-277 -186.5t-187 -276.5t-68.5 -338.5t68.5 -338.5t187 -277t277 -187t338.5 -68.5t338.5 68.5t276.5 187t186.5 277t68.5 338.5
t-68.5 338.5t-186.5 276.5t-276.5 186.5t-338.5 68.5v0zM1630 1081q-10 60 -30 116t-51 109q-10 18 -30.5 23.5t-39.5 -5.5q-18 -10 -23.5 -30.5t5.5 -39.5q18 -30 31.5 -63t22.5 -66q-7 0 -14.5 0.5t-15.5 0.5h-308q-3 5 -6.5 9t-6.5 8q41 31 72.5 69t52.5 81t31.5 91
t10.5 101t-20 99.5t-55 81.5t-81.5 55t-99.5 20q-65 0 -120.5 -30.5t-90.5 -80.5q-59 -10 -115.5 -30t-108.5 -51q-18 -10 -23.5 -30.5t4.5 -39.5q7 -12 19 -18.5t26 -6.5q6 0 12.5 1.5t12.5 5.5q31 18 63.5 31.5t66.5 22.5q-1 -7 -1.5 -14.5t-0.5 -15.5v-308q-4 -3 -8 -6.5
t-8 -6.5q-32 41 -69.5 72.5t-80.5 52.5t-91 31.5t-101 10.5t-99.5 -20t-81.5 -55t-55 -81.5t-20 -99.5q0 -65 30.5 -120.5t80.5 -90.5q10 -59 30 -115.5t50 -108.5q7 -12 19 -19t26 -7q6 0 12.5 2t12.5 5q19 11 24.5 31.5t-5.5 38.5q-18 31 -31.5 63.5t-23.5 66.5
q8 -1 15.5 -1.5t15.5 -0.5h307q3 -4 6.5 -8t7.5 -8q-41 -32 -72.5 -69.5t-52.5 -80.5t-32 -91t-11 -101t20.5 -99.5t55 -81.5t81 -55t99.5 -20q66 0 121.5 30.5t89.5 80.5q60 10 116 30t109 50q18 11 23.5 31.5t-5.5 38.5q-10 19 -30.5 24.5t-39.5 -5.5q-30 -18 -63 -31.5
t-66 -23.5q0 8 0.5 15.5t0.5 15.5v307q5 3 9 6.5t8 7.5q31 -41 69 -72.5t81 -52.5t91 -32t101 -11t99.5 20.5t81.5 55t55 81t20 99.5q0 66 -30.5 121.5t-80.5 89.5v0zM973 819q-64 0 -109 45t-45 109q0 63 45 108t109 45q63 0 108 -45t45 -108q0 -64 -45 -109t-108 -45v0z
M922 1485q0 63 45 108t108 45q64 0 109 -45t45 -108q0 -89 -38 -159t-114 -119q-24 10 -50 16t-54 6q-13 0 -26 -1.5t-25 -3.5v261v0zM461 922q-64 0 -109 45t-45 108q0 64 45 109t109 45q89 0 158.5 -38t119.5 -114q-11 -24 -16.5 -50t-5.5 -54q0 -13 1 -26t4 -25h-261v0z
M1024 461q0 -64 -45 -109t-109 -45q-63 0 -108 45t-45 109q0 89 38 158.5t114 119.5q24 -11 50 -16.5t54 -5.5q13 0 26 1t25 4v-261v0zM1485 717q-89 0 -159 38t-119 114q10 24 16 50t6 54q0 13 -1.5 26t-3.5 25h261q63 0 108 -45t45 -109q0 -63 -45 -108t-108 -45v0z" />
    <glyph glyph-name="uniE645" unicode="contrast" 
d="M973 -102q-98 0 -191.5 18.5t-181 54.5t-167 89.5t-148.5 122.5q-69 68 -122 148t-89.5 167t-55 181t-18.5 191q0 98 18.5 191.5t55 181t89.5 167t122 148.5t148.5 122t167 89.5t181 55t191.5 18.5q97 0 191 -18.5t181.5 -55t167 -89.5t148.5 -122t122 -148.5t89 -167
t55 -181t19 -191.5q0 -97 -19 -191t-55 -181t-89 -167t-122 -148q-69 -69 -148.5 -122.5t-167 -89.5t-181.5 -54.5t-191 -18.5v0zM973 1741q-180 0 -338.5 -68.5t-277 -187t-187 -277t-68.5 -338.5t68.5 -338.5t187 -276.5t277 -186.5t338.5 -68.5t338.5 68.5t276.5 186.5
t186.5 276.5t68.5 338.5t-68.5 338.5t-186.5 277t-276.5 187t-338.5 68.5v0zM973 205q-21 0 -36 15t-15 36v1229q0 21 15 36t36 15q137 0 258.5 -52.5t212 -143t142.5 -211.5t52 -259q0 -137 -52 -258.5t-142.5 -211.5t-212 -142.5t-258.5 -52.5v0zM1024 1431v-1121
q107 9 200.5 56.5t163 123t109 173t39.5 207.5t-39.5 208t-109 173t-163 123t-200.5 57v0z" />
    <glyph glyph-name="uniE646" unicode="brightness" 
d="M973 1331q-21 0 -36 15t-15 36v205q0 21 15 36t36 15t36 -15t15 -36v-205q0 -21 -15 -36t-36 -15v0zM461 819h-205q-21 0 -36 15t-15 36q0 22 15 37t36 15h205q21 0 36 -15t15 -37q0 -21 -15 -36t-36 -15v0zM1690 819h-205q-21 0 -36 15t-15 36q0 22 15 37t36 15h205
q21 0 36 -15t15 -37q0 -21 -15 -36t-36 -15v0zM973 102q-21 0 -36 15t-15 37v204q0 22 15 37t36 15t36 -15t15 -37v-204q0 -22 -15 -37t-36 -15v0zM973 1126q53 0 99.5 -20t81.5 -54.5t55 -81.5t20 -100t-20 -99.5t-55 -81t-81.5 -55t-99.5 -20.5t-99.5 20.5t-81.5 55
t-55 81t-20 99.5t20 100t55 81.5t81.5 54.5t99.5 20v0zM973 1229q-74 0 -139.5 -28.5t-114 -77t-77 -113.5t-28.5 -140q0 -74 28.5 -139t77 -114t114 -77t139.5 -28t139.5 28t114 77t76.5 114t28 139q0 75 -28 140t-76.5 113.5t-114 77t-139.5 28.5v0v0zM1309 1207
q-10 0 -19 3.5t-17 11.5q-15 15 -15 36t15 36l145 145q15 15 36 15t36 -15t15 -36t-15 -36l-145 -145q-7 -8 -16.5 -11.5t-19.5 -3.5v0zM636 1207q-9 0 -18.5 3.5t-17.5 11.5l-145 145q-15 15 -15 36t15 36t36.5 15t36.5 -15l145 -145q15 -15 15 -36t-15 -36
q-8 -8 -17.5 -11.5t-19.5 -3.5v0zM1454 287q-10 0 -19.5 3.5t-16.5 11.5l-145 145q-15 15 -15 36t15 36t36 15t36 -15l145 -145q15 -15 15 -36t-15 -36q-7 -8 -16.5 -11.5t-19.5 -3.5v0zM492 287q-10 0 -19.5 3.5t-17.5 11.5q-15 15 -15 36t15 36l145 145q15 15 36.5 15
t36.5 -15t15 -36t-15 -36l-145 -145q-8 -8 -17.5 -11.5t-18.5 -3.5v0z" />
    <glyph glyph-name="uniE647" unicode="brightness&#x32;" 
d="M973 1434q-21 0 -36 15t-15 36v307q0 21 15 36t36 15t36 -15t15 -36v-307q0 -21 -15 -36t-36 -15v0zM358 819h-307q-21 0 -36 15t-15 36q0 22 15 37t36 15h307q22 0 37 -15t15 -37q0 -21 -15 -36t-37 -15v0zM1894 819h-307q-21 0 -36 15t-15 36q0 22 15 37t36 15h307
q22 0 37 -15t15 -37q0 -21 -15 -36t-37 -15v0zM973 -102q-21 0 -36 15t-15 36v307q0 21 15 36t36 15t36 -15t15 -36v-307q0 -21 -15 -36t-36 -15v0zM973 1228q72 0 137.5 -27t115.5 -78q51 -50 78 -115.5t27 -137.5q0 -71 -27 -136.5t-78 -115.5q-50 -51 -115.5 -78
t-137.5 -27t-137.5 27t-116.5 78q-50 50 -77.5 115.5t-27.5 136.5q0 72 27.5 137.5t77.5 115.5q51 51 116.5 78t137.5 27v0zM973 1330q-96 0 -179.5 -36t-146.5 -98.5t-99 -146t-36 -179.5q0 -95 36 -178.5t99 -146t146.5 -99t179.5 -36.5q95 0 179 36.5t146.5 99t99 146
t36.5 178.5q0 96 -36.5 179.5t-99 146t-146.5 98.5t-179 36v0v0zM564 1279q-10 0 -19.5 4t-16.5 11l-217 217q-15 15 -15 36.5t15 36.5t36 15t36 -15l217 -217q15 -15 15 -36.5t-15 -36.5q-7 -7 -16.5 -11t-19.5 -4v0zM347 142q-10 0 -19.5 3.5t-16.5 11.5q-15 15 -15 36
t15 36l217 218q15 15 36 15t36 -15t15 -36.5t-15 -36.5l-217 -217q-8 -8 -17 -11.5t-19 -3.5v0zM1382 1279q-10 0 -19.5 4t-17.5 11q-15 15 -15 36.5t15 36.5l218 217q15 15 36 15t36 -15t15 -36.5t-15 -36.5l-217 -217q-8 -7 -17.5 -11t-18.5 -4v0zM1599 142
q-10 0 -19.5 3.5t-16.5 11.5l-218 217q-15 15 -15 36.5t15 36.5t36.5 15t36.5 -15l217 -218q15 -15 15 -36t-15 -36q-7 -8 -16.5 -11.5t-19.5 -3.5v0z" />
    <glyph glyph-name="uniE648" unicode="brightness&#x2d;auto" 
d="M973 410q-95 0 -179 36t-146.5 98.5t-99 146.5t-36.5 179q0 96 36.5 180t99 146.5t146.5 98.5t179 36t179 -36t146.5 -98.5t99 -146.5t36.5 -180q0 -95 -36.5 -179t-99 -146.5t-146.5 -98.5t-179 -36v0zM973 1229q-74 0 -139.5 -28.5t-114 -77t-77 -113.5t-28.5 -140
q0 -74 28.5 -139t77 -114t114 -77t139.5 -28t139 28t114 77t77 114t28 139q0 75 -28 140t-77 113.5t-114 77t-139 28.5v0zM564 1279q-10 0 -19.5 4t-16.5 11l-217 217q-15 15 -15 36.5t15 36.5t36 15t36 -15l217 -217q15 -15 15 -36.5t-15 -36.5q-7 -7 -16.5 -11t-19.5 -4v0
zM347 142q-10 0 -19.5 3.5t-16.5 11.5q-15 15 -15 36t15 36l217 218q15 15 36 15t36 -15t15 -36.5t-15 -36.5l-217 -217q-8 -8 -17 -11.5t-19 -3.5v0zM1382 1279q-10 0 -19.5 4t-17.5 11q-15 15 -15 36.5t15 36.5l218 217q15 15 36 15t36 -15t15 -36.5t-15 -36.5l-217 -217
q-8 -7 -17.5 -11t-18.5 -4v0zM973 1434q-21 0 -36 15t-15 36v307q0 21 15 36t36 15t36 -15t15 -36v-307q0 -21 -15 -36t-36 -15v0zM358 819h-307q-21 0 -36 15t-15 36q0 22 15 37t36 15h307q22 0 37 -15t15 -37q0 -21 -15 -36t-37 -15v0zM973 -102q-21 0 -36 15t-15 36v307
q0 21 15 36t36 15t36 -15t15 -36v-307q0 -21 -15 -36t-36 -15v0zM1894 819h-307q-21 0 -36 15t-15 36q0 22 15 37t36 15h307q22 0 37 -15t15 -37q0 -21 -15 -36t-37 -15v0zM1690 512q-53 0 -100 -20t-81.5 -55t-54.5 -81.5t-20 -99.5v-307q0 -21 15 -36t36 -15t36 15t15 36
v153h307v-153q0 -21 15 -36t36 -15q22 0 37 15t15 36v307q0 53 -20.5 99.5t-55 81.5t-81 55t-99.5 20v0zM1536 205v51q0 64 45 109t109 45q63 0 108 -45t45 -109v-51h-307v0z" />
    <glyph glyph-name="uniE649" unicode="moon" 
d="M1059 -102q-106 0 -208.5 20t-197.5 59.5t-181.5 97.5t-161.5 133t-133 161.5t-97 181.5t-59.5 197t-20.5 208t20.5 208.5t59.5 197.5t97 181.5t133 161.5q39 39 81.5 73.5t87.5 64t93.5 54.5t99.5 45q15 6 31 2t26 -16q11 -12 12.5 -28.5t-6.5 -30.5q-36 -63 -61.5 -132
t-40 -140.5t-17 -145t6.5 -146.5q10 -75 31 -146.5t53.5 -138t76 -127t97.5 -114.5q64 -64 138.5 -113.5t155.5 -83.5t168.5 -51.5t178.5 -17.5q59 0 117.5 8t115 23t111 37t105.5 52q14 8 30.5 6.5t28.5 -12.5q13 -11 16.5 -26.5t-2.5 -30.5q-20 -51 -44.5 -99.5t-54.5 -94
t-64.5 -87.5t-73.5 -81q-75 -75 -161.5 -133t-181.5 -97.5t-197 -59.5t-208 -20v0zM582 1786q-54 -31 -104 -69.5t-95 -83.5q-68 -68 -120.5 -146.5t-88 -164t-54 -178t-18.5 -188.5q0 -95 18.5 -187.5t54 -178.5t88 -164t120.5 -146q67 -68 145.5 -120t164 -87.5t178 -54
t188.5 -18.5t188 18.5t178 54t164 87.5t146 120q45 45 83.5 95t69.5 105q-43 -17 -88 -30t-91.5 -21.5t-93 -13t-93.5 -4.5q-101 0 -198.5 19.5t-188 57t-173 92.5t-153.5 126q-60 60 -108.5 127.5t-84.5 141.5t-60 153.5t-35 163.5q-7 63 -7 126t7.5 125t23 123t37.5 120v0
z" />
    <glyph glyph-name="uniE64A" unicode="cloud" 
d="M1639 307h-1025q-127 0 -238.5 48.5t-195 132t-132 195.5t-48.5 239t48.5 238.5t132 195t195 132t238.5 48.5q62 0 121.5 -12t115.5 -35.5t106 -57t94 -77.5q6 15 14.5 29.5t18.5 27.5q43 59 108.5 92t138.5 33q64 0 120 -24t97.5 -66t65.5 -98t24 -119q0 -27 -4.5 -53.5
t-13.5 -50.5h9.5h9.5q85 0 159.5 -32t130 -87.5t87.5 -130t32 -159.5q0 -84 -32 -158.5t-87.5 -130t-130 -88t-159.5 -32.5v0zM614 1434q-105 0 -198.5 -40.5t-163 -110t-110 -163t-40.5 -198.5q0 -106 40.5 -199.5t110 -163t163 -109.5t198.5 -40h1025q63 0 119 24
t97.5 65.5t66 97.5t24.5 119q0 64 -24.5 119.5t-66 97t-97.5 66t-119 24.5q-27 0 -53.5 -5t-51.5 -14q-17 -6 -34 -0.5t-26 20.5q-10 15 -8.5 33t13.5 31q28 28 42.5 64.5t14.5 76.5q0 42 -16 79.5t-44 65t-65 44t-80 16.5q-49 0 -92 -22t-73 -62q-17 -24 -27.5 -51.5
t-11.5 -56.5q-1 -16 -11.5 -29t-26.5 -17q-15 -5 -30.5 0.5t-24.5 19.5q-9 12 -18 23.5t-19 21.5q-36 41 -80 73.5t-93 54.5t-102 33.5t-108 11.5v0z" />
    <glyph glyph-name="uniE64B" unicode="cloud&#x2d;upload" 
d="M1316 753l-205 205q-15 15 -36 15t-36 -15l-205 -205q-15 -15 -15 -36t15 -36t36.5 -15t36.5 15l117 117v-440q0 -21 15 -36t36 -15t36 15t15 36v440l118 -117q7 -8 16.5 -11.5t19.5 -3.5t19.5 3.5t16.5 11.5q15 15 15 36t-15 36v0zM1639 307h-359q-21 0 -36 15t-15 36
q0 22 15 37t36 15h359q63 0 119 24t97.5 65.5t66 97.5t24.5 119q0 64 -24.5 119.5t-66 97t-97.5 66t-119 24.5q-27 0 -53.5 -5t-51.5 -14q-17 -6 -34 -0.5t-26 20.5q-10 15 -8.5 33t13.5 31q28 28 42.5 64.5t14.5 76.5q0 42 -16 79.5t-44 65t-65 44t-80 16.5q-49 0 -92 -22
t-73 -62q-17 -24 -27.5 -51.5t-11.5 -56.5q-1 -16 -11.5 -29t-26.5 -17q-15 -5 -30.5 0.5t-24.5 19.5q-9 12 -18 23.5t-19 21.5q-36 41 -80 73.5t-93 54.5t-102 33.5t-108 11.5q-105 0 -198.5 -40.5t-163 -110t-110 -163t-40.5 -198.5q0 -106 40.5 -199.5t110 -163
t163 -109.5t198.5 -40h256q22 0 37 -15t15 -37q0 -21 -15 -36t-37 -15h-256q-127 0 -238.5 48.5t-195 132t-132 195.5t-48.5 239t48.5 238.5t132 195t195 132t238.5 48.5q62 0 121.5 -12t115.5 -35.5t106 -57t94 -77.5q6 15 14.5 29.5t18.5 27.5q43 59 108.5 92t138.5 33
q64 0 120 -24t97.5 -66t65.5 -98t24 -119q0 -27 -4.5 -53.5t-13.5 -50.5h9.5h9.5q85 0 159.5 -32t130 -87.5t87.5 -130t32 -159.5q0 -84 -32 -158.5t-87.5 -130t-130 -88t-159.5 -32.5v0z" />
    <glyph glyph-name="uniE64C" unicode="cloud&#x2d;download" 
d="M1316 548q-15 15 -36 15t-36 -15l-118 -117v439q0 22 -15 37t-36 15t-36 -15t-15 -37v-439l-117 117q-15 15 -36.5 15t-36.5 -15t-15 -36t15 -36l205 -205q7 -7 16.5 -11t19.5 -4t19.5 3.5t16.5 11.5l205 205q15 15 15 36t-15 36v0zM1639 307h-257q-21 0 -36 15t-15 36
q0 22 15 37t36 15h257q63 0 119 24t97.5 65.5t66 97.5t24.5 119q0 64 -24.5 119.5t-66 97t-97.5 66t-119 24.5q-27 0 -53.5 -5t-51.5 -14q-17 -6 -34 -0.5t-26 20.5q-10 15 -8.5 33t13.5 31q28 28 42.5 64.5t14.5 76.5q0 42 -16 79.5t-44 65t-65 44t-80 16.5q-49 0 -92 -22
t-73 -62q-17 -24 -27.5 -51.5t-11.5 -56.5q-1 -16 -11.5 -29t-26.5 -17q-15 -5 -30.5 0.5t-24.5 19.5q-9 12 -18 23.5t-19 21.5q-36 41 -80 73.5t-93 54.5t-102 33.5t-108 11.5q-105 0 -198.5 -40.5t-163 -110t-110 -163t-40.5 -198.5q0 -106 40.5 -199.5t110 -163
t163 -109.5t198.5 -40h154q21 0 36 -15t15 -37q0 -21 -15 -36t-36 -15h-154q-127 0 -238.5 48.5t-195 132t-132 195.5t-48.5 239t48.5 238.5t132 195t195 132t238.5 48.5q62 0 121.5 -12t115.5 -35.5t106 -57t94 -77.5q6 15 14.5 29.5t18.5 27.5q43 59 108.5 92t138.5 33
q64 0 120 -24t97.5 -66t65.5 -98t24 -119q0 -27 -4.5 -53.5t-13.5 -50.5h9.5h9.5q85 0 159.5 -32t130 -87.5t87.5 -130t32 -159.5q0 -84 -32 -158.5t-87.5 -130t-130 -88t-159.5 -32.5v0z" />
    <glyph glyph-name="uniE64D" unicode="cloud&#x2d;rain" 
d="M1639 410h-1025q-127 0 -238.5 48t-195 131.5t-132 195.5t-48.5 239t48.5 239t132 195.5t195 131.5t238.5 48q62 0 121.5 -12t115.5 -35t106 -57t94 -77q6 15 14.5 29t18.5 27q43 59 108.5 92t138.5 33q64 0 120 -24t97.5 -65.5t65.5 -97.5t24 -120q0 -27 -4.5 -53
t-13.5 -51q5 0 9.5 0.5t9.5 0.5q85 0 159.5 -32.5t130 -88t87.5 -130t32 -158.5q0 -85 -32 -159.5t-87.5 -130t-130 -87.5t-159.5 -32v0zM614 1536q-105 0 -198.5 -40.5t-163 -110t-110 -162.5t-40.5 -199t40.5 -199t110 -162.5t163 -110t198.5 -40.5h1025q63 0 119 24
t97.5 66t66 97.5t24.5 119.5q0 63 -24.5 119t-66 97.5t-97.5 65.5t-119 24q-27 0 -53.5 -4.5t-51.5 -13.5q-17 -6 -34 -0.5t-26 20.5q-10 15 -8.5 32.5t13.5 30.5q28 29 42.5 65.5t14.5 75.5q0 43 -16 80t-44 65t-65 44t-80 16q-49 0 -92 -22t-73 -61q-17 -24 -27.5 -51.5
t-11.5 -57.5q-1 -16 -11.5 -28.5t-26.5 -17.5q-15 -4 -30.5 1.5t-24.5 18.5q-9 12 -18 23.5t-19 22.5q-36 41 -80 73t-93 54t-102 33.5t-108 11.5v0zM256 102q-21 0 -36 15t-15 37v102q0 21 15 36t36 15t36 -15t15 -36v-102q0 -22 -15 -37t-36 -15v0zM666 102q-22 0 -37 15
t-15 37v102q0 21 15 36t37 15q21 0 36 -15t15 -36v-102q0 -22 -15 -37t-36 -15v0zM1075 102q-21 0 -36 15t-15 37v102q0 21 15 36t36 15t36 -15t15 -36v-102q0 -22 -15 -37t-36 -15v0zM1485 102q-21 0 -36 15t-15 37v102q0 21 15 36t36 15t36 -15t15 -36v-102q0 -22 -15 -37
t-36 -15v0zM1894 102q-21 0 -36 15t-15 37v102q0 21 15 36t36 15q22 0 37 -15t15 -36v-102q0 -22 -15 -37t-37 -15v0zM1690 -102q-22 0 -37 15t-15 36v102q0 21 15 36t37 15q21 0 36 -15t15 -36v-102q0 -21 -15 -36t-36 -15v0zM1280 -102q-21 0 -36 15t-15 36v102
q0 21 15 36t36 15t36 -15t15 -36v-102q0 -21 -15 -36t-36 -15v0zM870 -102q-21 0 -36 15t-15 36v102q0 21 15 36t36 15q22 0 37 -15t15 -36v-102q0 -21 -15 -36t-37 -15v0zM461 -102q-21 0 -36 15t-15 36v102q0 21 15 36t36 15t36 -15t15 -36v-102q0 -21 -15 -36t-36 -15v0z
" />
    <glyph glyph-name="uniE64E" unicode="cloud&#x2d;hailstones" 
d="M1639 410h-1025q-127 0 -238.5 48t-195 131.5t-132 195.5t-48.5 239t48.5 239t132 195.5t195 131.5t238.5 48q62 0 121.5 -12t115.5 -35t106 -57t94 -77q6 15 14.5 29t18.5 27q43 59 108.5 92t138.5 33q64 0 120 -24t97.5 -65.5t65.5 -97.5t24 -120q0 -27 -4.5 -53
t-13.5 -51q5 0 9.5 0.5t9.5 0.5q85 0 159.5 -32.5t130 -88t87.5 -130t32 -158.5q0 -85 -32 -159.5t-87.5 -130t-130 -87.5t-159.5 -32v0zM614 1536q-105 0 -198.5 -40.5t-163 -110t-110 -162.5t-40.5 -199t40.5 -199t110 -162.5t163 -110t198.5 -40.5h1025q63 0 119 24
t97.5 66t66 97.5t24.5 119.5q0 63 -24.5 119t-66 97.5t-97.5 65.5t-119 24q-27 0 -53.5 -4.5t-51.5 -13.5q-17 -6 -34 -0.5t-26 20.5q-10 15 -8.5 32.5t13.5 30.5q28 29 42.5 65.5t14.5 75.5q0 43 -16 80t-44 65t-65 44t-80 16q-49 0 -92 -22t-73 -61q-17 -24 -27.5 -51.5
t-11.5 -57.5q-1 -16 -11.5 -28.5t-26.5 -17.5q-15 -4 -30.5 1.5t-24.5 18.5q-9 12 -18 23.5t-19 22.5q-36 41 -80 73t-93 54t-102 33.5t-108 11.5v0zM307 205q0 -43 -30 -73t-72 -30q-43 0 -73 30t-30 73q0 42 30 72t73 30q42 0 72 -30t30 -72v0zM1126 205q0 -43 -30 -73
t-72 -30t-72 30t-30 73q0 42 30 72t72 30t72 -30t30 -72v0zM1946 205q0 -43 -30 -73t-73 -30q-42 0 -72 30t-30 73q0 42 30 72t72 30q43 0 73 -30t30 -72v0zM717 0q0 -42 -30 -72t-73 -30q-42 0 -72 30t-30 72t30 72t72 30q43 0 73 -30t30 -72v0zM1536 0q0 -42 -30 -72
t-72 -30q-43 0 -73 30t-30 72t30 72t73 30q42 0 72 -30t30 -72v0z" />
    <glyph glyph-name="uniE64F" unicode="cloud&#x2d;snow" 
d="M1638 614h-1024q-127 0 -238.5 48.5t-195 132t-132 195.5t-48.5 239t48.5 239t132 195t195 131.5t238.5 48.5q62 0 122 -12t115.5 -35.5t106 -57t93.5 -77.5q18 41 46.5 74.5t65 57.5t79.5 37t89 13q64 0 120 -24t97.5 -66t65.5 -97.5t24 -119.5q0 -27 -4.5 -52.5
t-12.5 -50.5q4 0 8.5 0.5t8.5 0.5q85 0 159.5 -32.5t130.5 -88t88 -130t32 -159.5t-32 -159.5t-88 -130t-130.5 -88t-159.5 -32.5v0zM614 1741q-105 0 -198.5 -40.5t-163 -110t-110 -162.5t-40.5 -199t40.5 -199.5t110 -163t163 -109.5t198.5 -40h1024q64 0 120 24t97.5 66
t66 97.5t24.5 119.5t-24.5 119.5t-66 97.5t-97.5 66t-120 24q-26 0 -51.5 -4.5t-50.5 -12.5q-17 -6 -33.5 -0.5t-26.5 20.5t-8.5 32.5t13.5 30.5q27 28 41 64t14 75q0 42 -16 79.5t-44 65.5t-65 44t-80 16q-40 0 -76 -15t-64 -41t-45 -61t-19 -75q-1 -16 -11.5 -29
t-25.5 -17q-16 -5 -31.5 0.5t-24.5 19.5q-36 51 -82.5 91.5t-100.5 68.5t-114 43t-123 15v0zM688 97l-113 57l113 56q19 10 26 30t-3 39q-9 19 -29 25.5t-39 -2.5l-131 -66v122q0 22 -15 37t-36 15t-36 -15t-15 -37v-122l-131 66q-19 9 -39 2.5t-30 -25.5q-9 -19 -2.5 -39
t25.5 -30l113 -56l-113 -57q-19 -9 -25.5 -29.5t2.5 -39.5q7 -13 19.5 -20.5t26.5 -7.5q6 0 11.5 1.5t11.5 3.5l131 66v-122q0 -21 15 -36t36 -15t36 15t15 36v122l131 -66q5 -2 11 -3.5t12 -1.5q14 0 26.5 7.5t18.5 20.5q10 19 3 39.5t-26 29.5v0zM1917 97l-113 57l113 56
q19 10 26 30t-3 39q-9 19 -29.5 25.5t-38.5 -2.5l-131 -66v122q0 22 -15 37t-36 15q-22 0 -37 -15t-15 -37v-122l-130 66q-19 9 -39.5 2.5t-29.5 -25.5t-2.5 -39t25.5 -30l113 -56l-113 -57q-19 -9 -25.5 -29.5t2.5 -39.5q7 -13 19.5 -20.5t26.5 -7.5q6 0 11.5 1.5t11.5 3.5
l130 66v-122q0 -21 15 -36t37 -15q21 0 36 15t15 36v122l131 -66q5 -2 11 -3.5t11 -1.5q14 0 26.5 7.5t19.5 20.5q10 19 3 39.5t-26 29.5v0zM1303 97l-113 57l113 56q19 10 25.5 30t-2.5 39q-10 19 -30 25.5t-39 -2.5l-131 -66v122q0 22 -15 37t-36 15t-36 -15t-15 -37v-122
l-131 66q-19 9 -39 2.5t-29 -25.5q-10 -19 -3 -39t26 -30l113 -56l-113 -57q-19 -9 -26 -29.5t3 -39.5q6 -13 18.5 -20.5t26.5 -7.5q6 0 12 1.5t11 3.5l131 66v-122q0 -21 15 -36t36 -15t36 15t15 36v122l131 -66q6 -2 11.5 -3.5t11.5 -1.5q14 0 26.5 7.5t19.5 20.5
q9 19 2.5 39.5t-25.5 29.5v0z" />
    <glyph glyph-name="uniE650" unicode="cloud&#x2d;windy" 
d="M1690 618q-19 0 -33.5 12.5t-17.5 31.5q-3 21 9.5 38t33.5 20q57 8 105 35t83.5 68t55.5 92.5t20 108.5q0 64 -24.5 119.5t-66 97.5t-97.5 66t-120 24q-26 0 -51.5 -4.5t-50.5 -12.5q-17 -6 -33.5 -0.5t-26.5 20.5t-8.5 32.5t13.5 30.5q27 28 41 64t14 75q0 42 -16 79.5
t-44 65.5t-65 44t-80 16q-40 0 -76 -15t-64 -41t-45 -61t-19 -75q-1 -16 -11.5 -29t-25.5 -17q-16 -5 -31.5 0.5t-24.5 19.5q-36 51 -82.5 91.5t-100.5 68.5t-114 43t-123 15q-105 0 -198.5 -40.5t-163 -110t-110 -162.5t-40.5 -199q0 -12 0.5 -23.5t1.5 -23.5
q2 -21 -11.5 -37t-34.5 -18t-37.5 11.5t-17.5 34.5q-2 14 -2.5 28t-0.5 28q0 127 48.5 239t132 195t195 131.5t238.5 48.5q62 0 122 -12t115.5 -35.5t106 -57t93.5 -77.5q18 41 46.5 74.5t65 57.5t79.5 37t89 13q64 0 120 -24t97.5 -66t65.5 -97.5t24 -119.5
q0 -27 -4.5 -52.5t-12.5 -50.5q4 0 8.5 0.5t8.5 0.5q85 0 159.5 -32.5t130.5 -88t88 -130t32 -159.5q0 -74 -26 -144t-75 -125q-49 -56 -113.5 -91t-136.5 -45q-2 -1 -4 -1h-3v0zM1485 717h-666q-42 0 -79.5 16t-65 44t-44 65t-16.5 80q0 42 16.5 79.5t44 65t65 43.5
t79.5 16q73 0 129.5 -46t71.5 -117q4 -21 21.5 -32.5t38.5 -7.5t32.5 22t7.5 38q-11 54 -39 99t-68 77.5t-89.5 51t-104.5 18.5q-63 0 -119 -24.5t-98 -66t-66 -97.5t-24 -119q0 -59 21 -111.5t57 -93.5h-385q-43 0 -73 30t-30 72q0 43 30 73t73 30q32 0 59 -19t37 -50
q7 -20 26.5 -29t39.5 -2t29 26t2 39q-22 62 -75 99.5t-118 37.5q-43 0 -80 -16t-65 -44t-44 -65t-16 -80q0 -42 16 -79.5t44 -65t65 -44t80 -16.5h1280q21 0 36 15t15 37q0 21 -15 36t-36 15v0zM410 102q-43 0 -80 16.5t-65 44t-44 65t-16 79.5q0 43 16 80t44 65t65 44
t80 16h870q21 0 36 -15t15 -36t-15 -36t-36 -15h-870q-43 0 -73 -30t-30 -73q0 -42 30 -72t73 -30q32 0 58.5 18.5t37.5 49.5q7 20 26.5 29t39.5 2t29 -26t2 -39q-22 -61 -75 -99t-118 -38v0zM1587 205h-614q-21 0 -36 15t-15 36t15 36t36 15h614q21 0 36 -15t15 -36
t-15 -36t-36 -15v0z" />
    <glyph glyph-name="uniE651" unicode="sun&#x2d;wind" 
d="M1485 717h-666q-42 0 -79.5 16t-65 44t-44 65t-16.5 80q0 42 16.5 79.5t44 65t65 43.5t79.5 16q73 0 129.5 -46t71.5 -117q4 -21 21.5 -32.5t38.5 -7.5t32.5 22t7.5 38q-11 54 -39 99t-68 77.5t-89.5 51t-104.5 18.5q-63 0 -119 -24.5t-98 -66t-66 -97.5t-24 -119
q0 -59 21 -111.5t57 -93.5h-385q-43 0 -73 30t-30 72q0 43 30 73t73 30q32 0 59 -19t37 -50q7 -20 26.5 -29t39.5 -2t29 26t2 39q-22 62 -75 99.5t-118 37.5q-43 0 -80 -16t-65 -44t-44 -65t-16 -80q0 -42 16 -79.5t44 -65t65 -44t80 -16.5h1280q21 0 36 15t15 37
q0 21 -15 36t-36 15v0zM410 102q-43 0 -80 16.5t-65 44t-44 65t-16 79.5q0 43 16 80t44 65t65 44t80 16h870q21 0 36 -15t15 -36t-15 -36t-36 -15h-870q-43 0 -73 -30t-30 -73q0 -42 30 -72t73 -30q32 0 58.5 18.5t37.5 49.5q7 20 26.5 29t39.5 2t29 -26t2 -39
q-22 -61 -75 -99t-118 -38v0zM1587 205h-614q-21 0 -36 15t-15 36t15 36t36 15h614q21 0 36 -15t15 -36t-15 -36t-36 -15v0zM1635 819q-7 0 -13.5 2t-12.5 5q-18 11 -23.5 31.5t4.5 38.5q24 41 36 86.5t12 92.5q0 74 -28 139.5t-76.5 114t-114 77t-139.5 28.5
q-66 0 -127 -23.5t-110 -66.5q-16 -14 -37 -12.5t-35 17.5q-14 15 -13 36.5t17 35.5q32 28 67.5 49.5t74.5 36t80 22t83 7.5q95 0 179 -36.5t146.5 -99t99 -146.5t36.5 -179q0 -61 -16 -119.5t-46 -110.5q-7 -13 -19 -19.5t-25 -6.5v0zM1280 1638q-21 0 -36 15t-15 37v102
q0 21 15 36t36 15t36 -15t15 -36v-102q0 -22 -15 -37t-36 -15v0zM768 1536q-10 0 -19.5 3.5t-16.5 11.5l-103 102q-15 15 -15 36.5t15 36.5t36.5 15t36.5 -15l102 -103q15 -15 15 -36t-15 -36q-7 -8 -16.5 -11.5t-19.5 -3.5v0zM1792 1536q-10 0 -19.5 3.5t-16.5 11.5
q-15 15 -15 36t15 36l102 103q15 15 36.5 15t36.5 -15t15 -36.5t-15 -36.5l-103 -102q-7 -8 -16.5 -11.5t-19.5 -3.5v0zM1997 1024h-103q-21 0 -36 15t-15 36t15 36t36 15h103q21 0 36 -15t15 -36t-15 -36t-36 -15v0zM1894 512q-9 0 -18.5 3.5t-17.5 11.5l-102 102
q-15 15 -15 36.5t15 36.5t36 15t36 -15l103 -103q15 -15 15 -36t-15 -36q-8 -8 -17.5 -11.5t-19.5 -3.5v0z" />
    <glyph glyph-name="uniE652" unicode="cloud&#x2d;fog" 
d="M1639 1228q-5 0 -9.5 -0.5t-9.5 -0.5q9 25 13.5 51t4.5 53q0 64 -24 120t-65.5 97.5t-97.5 65.5t-120 24q-73 0 -138.5 -33t-108.5 -92q-10 -13 -18.5 -27t-14.5 -29q-44 43 -94 77t-106 57t-115.5 35t-121.5 12q-127 0 -238.5 -48t-195 -131.5t-132 -195.5t-48.5 -239
v-410q0 -127 48.5 -238.5t132 -195t195 -132t238.5 -48.5h1025q85 0 159.5 32t130 87.5t87.5 130t32 159.5v410q0 84 -32 158.5t-87.5 130t-130 88t-159.5 32.5v0zM614 1536q55 0 108 -11.5t102 -33.5t93 -54t80 -73q10 -11 19 -22.5t18 -23.5q9 -13 24.5 -18.5t30.5 -1.5
q16 5 26.5 17.5t11.5 28.5q1 30 11.5 57.5t27.5 51.5q30 39 73 61t92 22q43 0 80 -16t65 -44t44 -65t16 -80q0 -39 -14.5 -75.5t-42.5 -65.5q-12 -13 -13.5 -30.5t8.5 -32.5q9 -15 26 -20.5t34 0.5q25 9 51.5 13.5t53.5 4.5q63 0 119 -24t97.5 -65.5t66 -97.5t24.5 -119
q0 -64 -24.5 -119.5t-66 -97.5t-97.5 -66t-119 -24h-1025q-105 0 -198.5 40.5t-163 110t-110 162.5t-40.5 199t40.5 199t110 162.5t163 110t198.5 40.5v0zM1936 538q-13 -50 -40.5 -92t-67 -73t-87.5 -48.5t-102 -17.5h-1025q-82 0 -157 25t-137.5 69t-110 105.5
t-75.5 134.5q43 -53 96 -95.5t114 -73t129.5 -46.5t140.5 -16h1025q44 0 85.5 8.5t79 25.5t71 40.5t61.5 53.5v0zM1639 102h-1025q-82 0 -157 25t-137.5 69.5t-110 105.5t-75.5 134q43 -53 96 -95.5t114 -73t129.5 -46.5t140.5 -16h1025q44 0 85.5 9t79 25.5t71 40
t61.5 53.5q-13 -50 -40.5 -92t-67 -73t-87.5 -48.5t-102 -17.5v0z" />
    <glyph glyph-name="uniE653" unicode="cloud&#x2d;sun" 
d="M1638 717h-8.5t-8.5 -1q8 25 12.5 51t4.5 52q0 50 -15 96t-42.5 84t-65.5 66.5t-83 43.5q-6 90 -44.5 167.5t-100.5 135.5t-142.5 91t-171.5 33q-90 0 -170 -32.5t-141.5 -89t-100.5 -132.5t-47 -164q-109 -18 -203 -72t-163 -134.5t-108.5 -183t-39.5 -216.5
q0 -127 48.5 -239t132 -195.5t195 -131.5t238.5 -48h1024q85 0 159.5 32t130.5 87.5t88 130.5t32 159q0 85 -32 159.5t-88 130t-130.5 88t-159.5 32.5v0zM973 1434q67 0 127.5 -24t108 -65t78.5 -97.5t41 -121.5q-46 0 -88.5 -13.5t-78.5 -37.5t-64 -57.5t-46 -72.5
q-43 42 -93 76t-105 57t-114.5 35.5t-120.5 12.5q9 65 40.5 121.5t78.5 97.5t107.5 65t128.5 24v0zM1638 0h-1024q-105 0 -198.5 40.5t-163 110t-110 162.5t-40.5 199t40.5 199t110 162.5t163 110t198.5 40.5q63 0 123 -15t114 -43t100.5 -68.5t82.5 -91.5q9 -14 24.5 -19.5
t31.5 -0.5q15 4 25.5 17t11.5 29q2 40 19 75t45 61t64 41t76 15q43 0 80 -16t65 -44t44 -65t16 -80q0 -39 -14 -74.5t-41 -64.5q-12 -13 -13.5 -30.5t8.5 -32.5t26.5 -20.5t33.5 0.5q25 9 50.5 13t51.5 4q64 0 120 -24t97.5 -65.5t66 -97.5t24.5 -120q0 -63 -24.5 -119
t-66 -98t-97.5 -66t-120 -24v0zM973 1638q-21 0 -36 15t-15 37v102q0 21 15 36t36 15t36 -15t15 -36v-102q0 -22 -15 -37t-36 -15v0zM1382 1536q-9 0 -18.5 3.5t-17.5 11.5q-15 15 -15 36t15 36l103 103q15 15 36 15t36 -15t15 -36.5t-15 -36.5l-102 -102q-8 -8 -17.5 -11.5
t-19.5 -3.5v0zM1690 1229h-103q-21 0 -36 15t-15 36t15 36t36 15h103q21 0 36 -15t15 -36t-15 -36t-36 -15v0zM358 1229h-102q-21 0 -36 15t-15 36t15 36t36 15h102q22 0 37 -15t15 -36t-15 -36t-37 -15v0zM563 1536q-10 0 -19.5 3.5t-16.5 11.5l-102 102q-15 15 -15 36.5
t15 36.5t36 15t36 -15l102 -103q15 -15 15 -36t-15 -36q-7 -8 -16.5 -11.5t-19.5 -3.5v0z" />
    <glyph glyph-name="uniE654" unicode="cloud&#x2d;lightning" 
d="M1639 307h-359q-21 0 -36 15t-15 36q0 22 15 37t36 15h359q63 0 119 24t97.5 65.5t66 97.5t24.5 119q0 64 -24.5 119.5t-66 97t-97.5 66t-119 24.5q-27 0 -53.5 -5t-51.5 -14q-17 -6 -34 -0.5t-26 20.5q-10 15 -8.5 33t13.5 31q28 28 42.5 64.5t14.5 76.5q0 42 -16 79.5
t-44 65t-65 44t-80 16.5q-49 0 -92 -22t-73 -62q-17 -24 -27.5 -51.5t-11.5 -56.5q-1 -16 -11.5 -29t-26.5 -17q-15 -5 -30.5 0.5t-24.5 19.5q-9 12 -18 23.5t-19 21.5q-36 41 -80 73.5t-93 54.5t-102 33.5t-108 11.5q-105 0 -198.5 -40.5t-163 -110t-110 -163t-40.5 -198.5
q0 -106 40.5 -199.5t110 -163t163 -109.5t198.5 -40h256q22 0 37 -15t15 -37q0 -21 -15 -36t-37 -15h-256q-127 0 -238.5 48.5t-195 132t-132 195.5t-48.5 239t48.5 238.5t132 195t195 132t238.5 48.5q62 0 121.5 -12t115.5 -35.5t106 -57t94 -77.5q6 15 14.5 29.5
t18.5 27.5q43 59 108.5 92t138.5 33q64 0 120 -24t97.5 -66t65.5 -98t24 -119q0 -27 -4.5 -53.5t-13.5 -50.5h9.5h9.5q85 0 159.5 -32t130 -87.5t87.5 -130t32 -159.5q0 -84 -32 -158.5t-87.5 -130t-130 -88t-159.5 -32.5v0zM1075 307q-6 0 -11.5 1.5t-11.5 4.5
q-19 9 -25.5 29t2.5 39l117 233h-224q-14 0 -25.5 6.5t-18.5 18.5q-7 11 -7.5 24.5t5.5 24.5l153 308q10 19 30 25.5t39 -2.5q19 -10 25.5 -30t-2.5 -39l-117 -233h225q13 0 24.5 -6.5t18.5 -17.5q7 -12 8 -25t-5 -25l-154 -307q-7 -14 -19.5 -21.5t-26.5 -7.5v0z" />
    <glyph glyph-name="uniE655" unicode="cloud&#x2d;sync" 
d="M459 329q-4 0 -7.5 0.5t-6.5 1.5q-47 13 -91.5 34.5t-85 49t-76.5 61.5t-66 73q-31 40 -54.5 84.5t-39.5 91.5t-24 96.5t-8 100.5q0 127 48.5 238.5t132 195t195 132t238.5 48.5q62 0 122 -12t115.5 -35.5t106 -57.5t93.5 -77q18 40 46.5 73.5t65 57.5t79.5 37.5t89 13.5
q64 0 120 -24t97.5 -66t65.5 -98t24 -119q0 -27 -4.5 -52.5t-12.5 -50.5h8.5h8.5q85 0 159.5 -32t130.5 -87.5t88 -130.5t32 -159q0 -59 -16.5 -115.5t-48.5 -106.5q-31 -48 -74 -86t-95 -62q-19 -9 -39 -2t-29 26t-2 39t26 29q40 19 72.5 48t55.5 65.5t35.5 78.5t12.5 86
q0 63 -24.5 119t-66 98t-97.5 66t-120 24q-26 0 -51.5 -4.5t-50.5 -12.5q-17 -6 -33.5 -0.5t-26.5 20.5q-10 14 -8.5 32t13.5 31q27 28 41 64t14 75q0 42 -16 79.5t-44 65t-65 44t-80 16.5q-40 0 -76 -15t-64 -41t-45 -61t-19 -75q-1 -17 -11.5 -29.5t-25.5 -17.5
q-16 -4 -31.5 1.5t-24.5 18.5q-36 52 -82.5 92.5t-100.5 68.5t-114 43t-123 15q-105 0 -198.5 -40.5t-163 -110t-110 -163t-40.5 -198.5q0 -86 27.5 -164.5t76.5 -143.5t117 -113t150 -72q20 -5 30.5 -24t4.5 -39q-5 -17 -18.5 -27t-30.5 -10v0zM1623 395q-15 15 -36 15
t-36 -15l-15 -15v30q0 84 -32 158.5t-88 130.5t-130.5 88t-159.5 32q-46 0 -90 -10t-85 -29q-19 -9 -26.5 -29t2.5 -39q9 -20 29 -27t39 2q31 15 64 22.5t67 7.5q64 0 120 -24.5t97.5 -66t66 -97.5t24.5 -119v-30l-15 15q-15 15 -36.5 15t-36.5 -15t-15 -36.5t15 -36.5
l103 -102q7 -8 16.5 -11.5t19.5 -3.5t19.5 3.5t16.5 11.5l102 102q15 15 15 36.5t-15 36.5v0zM1326 108q-9 19 -29 26t-39 -2q-31 -15 -64 -22.5t-68 -7.5q-63 0 -119 24.5t-97.5 66t-66 97.5t-24.5 120v30l15 -15q8 -8 17.5 -11.5t18.5 -3.5q10 0 19.5 3.5t17.5 11.5
q15 15 15 36t-15 36l-103 102q-15 15 -36 15t-36 -15l-103 -102q-15 -15 -15 -36t15 -36t36.5 -15t36.5 15l15 15v-30q0 -85 32 -159.5t88 -130.5t130.5 -88t158.5 -32q46 0 90.5 10t85.5 29q19 10 26 30t-2 39v0z" />
    <glyph glyph-name="uniE656" unicode="cloud&#x2d;lock" 
d="M1638 307h-51q-21 0 -36 15t-15 36q0 22 15 37t36 15h51q64 0 120 24t97.5 65.5t66 97.5t24.5 120q0 63 -24.5 119t-66 98t-97.5 66t-120 24q-26 0 -51.5 -4.5t-50.5 -12.5q-17 -6 -33.5 -0.5t-26.5 20.5q-9 14 -8 32t13 31q27 28 41 64t14 75q0 42 -16 79.5t-44 65
t-65 44t-80 16.5q-40 0 -76 -15t-64 -41t-45 -61t-19 -75q-1 -17 -11.5 -29.5t-25.5 -16.5q-16 -5 -31.5 0.5t-24.5 18.5q-36 52 -82.5 92.5t-100.5 68.5t-114 43t-123 15q-105 0 -198.5 -40.5t-163 -110t-110 -163t-40.5 -198.5q0 -100 35.5 -189t98 -157.5t147.5 -111.5
t185 -52q21 -2 34.5 -18.5t11.5 -37.5t-18 -34.5t-37 -11.5q-57 5 -112 20.5t-105 40.5t-95.5 59t-84.5 76q-39 43 -69.5 91.5t-51 101t-31 109t-10.5 114.5q0 127 48.5 238.5t132 195t195 132t238.5 48.5q62 0 122 -12t115.5 -35.5t106 -57.5t93.5 -77q18 40 46.5 73.5
t65 57.5t79.5 37.5t89 13.5q64 0 120 -24t97.5 -66t65.5 -98t24 -119q0 -27 -4.5 -52.5t-12.5 -50.5h8.5h8.5q85 0 159.5 -32t130.5 -87.5t88 -130.5t32 -159q0 -85 -32 -159.5t-88 -130t-130.5 -88t-159.5 -32.5v0zM1331 708v60q0 53 -20 99.5t-55 81.5t-81.5 55t-99.5 20
t-99.5 -20t-81.5 -55t-55 -81.5t-20 -99.5v-60q-44 -16 -73 -55.5t-29 -89.5v-307q0 -64 45 -109t108 -45h410q64 0 109 45t45 109v307q0 50 -29 89.5t-74 55.5v0zM1075 922q64 0 109 -45t45 -109v-51h-307v51q0 64 45 109t108 45v0zM1331 256q0 -21 -15 -36t-36 -15h-410
q-21 0 -36 15t-15 36v307q0 21 15 36t36 15h410q21 0 36 -15t15 -36v-307v0z" />
    <glyph glyph-name="uniE657" unicode="cloud&#x2d;gear" 
d="M1792 342q-14 0 -27 7.5t-19 21.5q-9 19 -2 39t26 29q40 19 72.5 48t55.5 65.5t35.5 78.5t12.5 86q0 63 -24.5 119t-66 98t-97.5 66t-120 24q-26 0 -51.5 -4.5t-50.5 -12.5q-17 -6 -33.5 -0.5t-26.5 20.5q-9 14 -8 32t13 31q27 28 41 64t14 75q0 42 -16 79.5t-44 65
t-65 44t-80 16.5q-40 0 -76 -15t-64 -41t-45 -61t-19 -75q-1 -17 -11.5 -29.5t-25.5 -16.5q-16 -5 -31.5 0.5t-24.5 18.5q-36 52 -82.5 92.5t-100.5 68.5t-114 43t-123 15q-105 0 -198.5 -40.5t-163 -110t-110 -163t-40.5 -198.5q0 -73 19.5 -141t56 -127t88 -107.5
t116.5 -81.5q19 -9 25.5 -29.5t-3.5 -38.5q-10 -19 -30 -25.5t-39 2.5q-37 19 -71 43t-65 52t-57.5 60t-48.5 67q-23 37 -40.5 76t-29 80t-17.5 83.5t-6 86.5q0 127 48.5 238.5t132 195t195 132t238.5 48.5q62 0 122 -12t115.5 -35.5t106 -57.5t93.5 -77q18 40 46.5 73.5
t65 57.5t79.5 37.5t89 13.5q64 0 120 -24t97.5 -66t65.5 -98t24 -119q0 -27 -4.5 -52.5t-12.5 -50.5h8.5h8.5q85 0 159.5 -32t130.5 -87.5t88 -130.5t32 -159q0 -59 -16.5 -115.5t-48.5 -106.5q-31 -48 -74 -86t-95 -62q-5 -3 -10.5 -4t-11.5 -1v0zM1075 307q-63 0 -108 45
t-45 109q0 63 45 108t108 45q64 0 109 -45t45 -108q0 -64 -45 -109t-109 -45v0zM1075 512q-21 0 -36 -15t-15 -36t15 -36t36 -15t36 15t15 36t-15 36t-36 15v0zM923 -79q-4 0 -7.5 0.5t-7.5 1.5q-59 18 -114 50t-101 74q-8 8 -12.5 18t-3.5 22q0 11 5 21t14 17
q29 23 36 60.5t-12 70.5q-13 24 -37 37.5t-51 13.5q-10 0 -19.5 -1.5t-18.5 -5.5q-10 -4 -21 -3.5t-21 6.5q-10 5 -17 14t-9 20q-7 30 -10.5 61t-3.5 63q0 31 3.5 62.5t10.5 61.5q2 11 9 20t17 14t21 6t21 -4q9 -3 18.5 -5t19.5 -2q27 0 51 14t37 38q19 32 12 69.5t-36 61.5
q-9 7 -14 17t-5 21q-1 11 3.5 21.5t12.5 17.5q46 43 101 74.5t114 50.5q11 3 22 1.5t21 -7.5q9 -6 15 -15t8 -21q6 -37 34.5 -62t66.5 -25t67 25t34 62q2 12 8 21t16 15q9 6 20.5 7.5t21.5 -1.5q60 -19 114.5 -50.5t100.5 -74.5q9 -7 13 -17.5t4 -21.5q-1 -11 -6 -21
t-13 -17q-30 -24 -37 -61.5t12 -69.5q14 -24 37.5 -38t51.5 -14q9 0 18.5 2t18.5 5q10 5 21.5 4t21.5 -6t16.5 -14t9.5 -20q6 -30 9.5 -61.5t3.5 -62.5q0 -32 -3.5 -63t-9.5 -61q-3 -11 -9.5 -20t-16.5 -14q-10 -6 -21.5 -6.5t-21.5 3.5q-9 4 -18.5 5.5t-18.5 1.5
q-28 0 -51.5 -13.5t-37.5 -37.5q-19 -33 -12 -70.5t37 -60.5q8 -7 13 -17t6 -21q0 -11 -4 -21.5t-13 -18.5q-46 -42 -100.5 -74t-114.5 -50q-10 -4 -21.5 -2.5t-20.5 7.5q-10 6 -16 15.5t-8 20.5q-5 37 -34 62t-67 25t-66.5 -25t-34.5 -62q-2 -11 -8 -20.5t-15 -15.5
q-7 -4 -14 -5.5t-14 -1.5v0zM802 90q20 -15 42.5 -28t46.5 -24q9 19 21.5 35.5t28.5 29.5q28 25 62.5 38t71.5 13t72 -13t62 -38q16 -13 28.5 -29.5t21.5 -35.5q24 11 46.5 24t43.5 28q-12 17 -19.5 36t-11.5 40q-7 36 -1 72.5t24 68.5q28 48 75.5 75.5t102.5 27.5
q3 0 7 -0.5t7 -0.5q2 13 2.5 26t0.5 26t-0.5 26t-2.5 25h-7h-7q-55 0 -102.5 27.5t-75.5 74.5q-18 32 -24 68.5t1 73.5q3 20 11 39t20 36q-21 16 -43.5 29t-46.5 23q-9 -18 -21.5 -34.5t-28.5 -30.5q-27 -24 -62 -37t-72 -13t-71.5 13t-62.5 37q-16 14 -28.5 30.5
t-21.5 34.5q-24 -10 -46.5 -23t-43.5 -29q12 -17 20 -36t12 -39q7 -37 1 -73.5t-25 -68.5q-27 -47 -75 -74.5t-102 -27.5h-7.5h-7.5q-1 -12 -2 -25t-1 -26t1 -26l2 -26q4 0 7.5 0.5t7.5 0.5q54 0 102 -27.5t75 -75.5q19 -32 25 -68.5t-1 -72.5q-4 -21 -12 -40t-19 -36v0z
" />
    <glyph glyph-name="uniE658" unicode="cloud&#x2d;alert" 
d="M1638 307h-358q-21 0 -36 15t-15 36q0 22 15 37t36 15h358q64 0 120 24t97.5 65.5t66 97.5t24.5 120q0 63 -24.5 119t-66 98t-97.5 66t-120 24q-26 0 -51.5 -4.5t-50.5 -12.5q-17 -6 -33.5 -0.5t-26.5 20.5q-10 14 -8.5 32t13.5 31q27 28 41 64t14 75q0 42 -16 79.5
t-44 65t-65 44t-80 16.5q-40 0 -76 -15t-64 -41t-45 -61t-19 -75q-1 -17 -11.5 -29.5t-25.5 -16.5q-16 -5 -31.5 0.5t-24.5 18.5q-36 52 -82.5 92.5t-100.5 68.5t-114 43t-123 15q-105 0 -198.5 -40.5t-163 -110t-110 -163t-40.5 -198.5q0 -106 40.5 -199.5t110 -163
t163 -109.5t198.5 -40h256q22 0 37 -15t15 -37q0 -21 -15 -36t-37 -15h-256q-127 0 -238.5 48.5t-195 132t-132 195.5t-48.5 239t48.5 238.5t132 195t195 132t238.5 48.5q62 0 122 -12t115.5 -35.5t106 -57.5t93.5 -77q18 40 46.5 73.5t65 57.5t79.5 37.5t89 13.5
q64 0 120 -24t97.5 -66t65.5 -98t24 -119q0 -27 -4.5 -52.5t-12.5 -50.5h8.5h8.5q85 0 159.5 -32t130.5 -87.5t88 -130.5t32 -159q0 -85 -32 -159.5t-88 -130t-130.5 -88t-159.5 -32.5v0zM1075 614q-21 0 -36 15t-15 37v307q0 21 15 36t36 15t36 -15t15 -36v-307
q0 -22 -15 -37t-36 -15v0zM1075 307q-21 0 -36 15t-15 36v103q0 21 15 36t36 15t36 -15t15 -36v-103q0 -21 -15 -36t-36 -15v0z" />
    <glyph glyph-name="uniE659" unicode="cloud&#x2d;check" 
d="M1638 307h-972q-22 0 -37 15t-15 36q0 22 15 37t37 15h972q64 0 120 24t97.5 65.5t66 97.5t24.5 120q0 63 -24.5 119t-66 98t-97.5 66t-120 24q-26 0 -51.5 -4.5t-50.5 -12.5q-17 -6 -33.5 -0.5t-26.5 20.5q-10 14 -8.5 32t13.5 31q27 28 41 64t14 75q0 42 -16 79.5
t-44 65t-65 44t-80 16.5q-40 0 -76 -15t-64 -41t-45 -61t-19 -75q-1 -17 -11.5 -29.5t-25.5 -16.5q-16 -5 -31.5 0.5t-24.5 18.5q-36 52 -82.5 92.5t-100.5 68.5t-114 43t-123 15q-105 0 -198.5 -40.5t-163 -110t-110 -163t-40.5 -198.5q0 -12 0.5 -23.5t1.5 -23.5
q2 -21 -11.5 -37.5t-34.5 -18.5t-37.5 12t-17.5 35q-2 14 -2.5 28t-0.5 28q0 127 48.5 238.5t132 195t195 132t238.5 48.5q62 0 122 -12t115.5 -35.5t106 -57.5t93.5 -77q18 40 46.5 73.5t65 57.5t79.5 37.5t89 13.5q64 0 120 -24t97.5 -66t65.5 -98t24 -119
q0 -27 -4.5 -52.5t-12.5 -50.5h8.5h8.5q85 0 159.5 -32t130.5 -87.5t88 -130.5t32 -159q0 -85 -32 -159.5t-88 -130t-130.5 -88t-159.5 -32.5v0zM358 358q-9 0 -18.5 4t-17.5 11l-205 205q-15 15 -15 36.5t15 36.5t36.5 15t36.5 -15l168 -169l476 476q15 15 36.5 15
t36.5 -15t15 -36.5t-15 -36.5l-512 -512q-8 -7 -17.5 -11t-19.5 -4v0z" />
    <glyph glyph-name="uniE65A" unicode="cloud&#x2d;cross" 
d="M1638 307h-460q-22 0 -37 15t-15 36q0 22 15 37t37 15h460q64 0 120 24t97.5 65.5t66 97.5t24.5 120q0 63 -24.5 119t-66 98t-97.5 66t-120 24q-26 0 -51.5 -4.5t-50.5 -12.5q-17 -6 -33.5 -0.5t-26.5 20.5q-10 14 -8.5 32t13.5 31q27 28 41 64t14 75q0 42 -16 79.5
t-44 65t-65 44t-80 16.5q-40 0 -76 -15t-64 -41t-45 -61t-19 -75q-1 -17 -11.5 -29.5t-25.5 -16.5q-16 -5 -31.5 0.5t-24.5 18.5q-36 52 -82.5 92.5t-100.5 68.5t-114 43t-123 15q-105 0 -198.5 -40.5t-163 -110t-110 -163t-40.5 -198.5q0 -80 24 -155t69 -140q13 -17 9 -38
t-21 -33t-38 -8.5t-33 20.5q-28 39 -48.5 81.5t-35 87t-21.5 91t-7 94.5q0 127 48.5 238.5t132 195t195 132t238.5 48.5q62 0 122 -12t115.5 -35.5t106 -57.5t93.5 -77q18 40 46.5 73.5t65 57.5t79.5 37.5t89 13.5q64 0 120 -24t97.5 -66t65.5 -98t24 -119q0 -27 -4.5 -52.5
t-12.5 -50.5h8.5h8.5q85 0 159.5 -32t130.5 -87.5t88 -130.5t32 -159q0 -85 -32 -159.5t-88 -130t-130.5 -88t-159.5 -32.5v0zM738 614l220 220q15 15 15 36.5t-15 36.5t-36.5 15t-36.5 -15l-219 -220l-220 220q-15 15 -36.5 15t-36.5 -15t-15 -36.5t15 -36.5l220 -220
l-220 -219q-15 -15 -15 -36.5t15 -36.5q8 -7 17.5 -11t19.5 -4q9 0 18.5 4t17.5 11l220 220l219 -220q8 -7 17.5 -11t19.5 -4q9 0 18.5 4t17.5 11q15 15 15 36.5t-15 36.5l-220 219v0z" />
    <glyph glyph-name="uniE65B" unicode="cloud&#x2d;crossed" 
d="M1638 1126h-8.5h-8.5q8 25 12.5 50.5t4.5 52.5q0 18 -2 35.5t-6 34.5l193 145q17 13 20 34t-10 38q-13 16 -34 19t-38 -9l-172 -130q-42 63 -109.5 101.5t-148.5 38.5q-46 0 -89 -13.5t-79.5 -37.5t-65 -57.5t-46.5 -73.5q-43 43 -93.5 77t-106 57.5t-115.5 35.5t-122 12
q-127 0 -238.5 -48.5t-195 -132t-132 -195t-48.5 -238.5q0 -80 19.5 -154.5t55.5 -140t86.5 -120.5t112.5 -97l-151 -113q-17 -13 -20 -34t10 -38q7 -10 18 -15t23 -5q8 0 15.5 2.5t14.5 7.5l189 142q56 -24 116.5 -37t124.5 -13h1024q85 0 159.5 32.5t130.5 88t88 130
t32 159.5q0 84 -32 159t-88 130.5t-130.5 87.5t-159.5 32v0zM102 922q0 105 40.5 198.5t110 163t163 110t198.5 40.5q63 0 123 -15t114 -43t100.5 -68.5t82.5 -92.5q9 -13 24.5 -18.5t31.5 -1.5q15 5 25.5 17.5t11.5 29.5q2 40 19 75t45 61t64 41t76 15q56 0 102.5 -27.5
t72.5 -71.5l-1144 -859q-58 33 -106 80t-82 104.5t-53 123.5t-19 138v0zM1638 410h-1024q-37 0 -73 5t-70 15l1065 799q0 -39 -14 -75t-41 -64q-12 -13 -13.5 -31t8.5 -32q10 -15 26.5 -20.5t33.5 0.5q25 8 50.5 12.5t51.5 4.5q64 0 120 -24t97.5 -66t66 -98t24.5 -119
q0 -64 -24.5 -120t-66 -97.5t-97.5 -65.5t-120 -24v0z" />
    <glyph glyph-name="uniE65C" unicode="cloud&#x2d;database" 
d="M1638 307h-153q-21 0 -36 15t-15 36q0 22 15 37t36 15h153q64 0 120 24t97.5 65.5t66 97.5t24.5 120q0 63 -24.5 119t-66 98t-97.5 66t-120 24q-26 0 -51.5 -4.5t-50.5 -12.5q-17 -6 -33.5 -0.5t-26.5 20.5q-10 14 -8.5 32t13.5 31q27 28 41 64t14 75q0 42 -16 79.5
t-44 65t-65 44t-80 16.5q-40 0 -76 -15t-64 -41t-45 -61t-19 -75q-1 -17 -11.5 -29.5t-25.5 -16.5q-16 -5 -31.5 0.5t-24.5 18.5q-36 52 -82.5 92.5t-100.5 68.5t-114 43t-123 15q-105 0 -198.5 -40.5t-163 -110t-110 -163t-40.5 -198.5q0 -100 35.5 -189t98 -157.5
t147.5 -111.5t185 -52q21 -2 34.5 -18.5t11.5 -37.5t-18 -34.5t-37 -11.5q-57 5 -112 20.5t-105 40.5t-95.5 59t-84.5 76q-39 43 -69.5 91.5t-51 101t-31 109t-10.5 114.5q0 127 48.5 238.5t132 195t195 132t238.5 48.5q62 0 122 -12t115.5 -35.5t106 -57.5t93.5 -77
q18 40 46.5 73.5t65 57.5t79.5 37.5t89 13.5q64 0 120 -24t97.5 -66t65.5 -98t24 -119q0 -27 -4.5 -52.5t-12.5 -50.5h8.5h8.5q85 0 159.5 -32t130.5 -87.5t88 -130.5t32 -159q0 -85 -32 -159.5t-88 -130t-130.5 -88t-159.5 -32.5v0zM1224 990q-41 17 -92.5 25.5t-107.5 8.5
t-107.5 -8.5t-92.5 -25.5q-70 -28 -88.5 -63t-18.5 -57v-409q0 -22 18.5 -57t88.5 -63q41 -16 92.5 -25t107.5 -9t107.5 9t92.5 25q70 28 88.5 63t18.5 57v409q0 22 -18.5 57t-88.5 63v0zM1229 668q-7 -12 -59 -33t-146 -21t-146 21t-59 33v84q1 0 2.5 -0.5t2.5 -1.5
q41 -16 92.5 -24.5t107.5 -8.5t107.5 8.5t92.5 24.5q1 1 2.5 1.5t2.5 0.5v-84v0zM1024 922q90 0 142 -19.5t62 -32.5q-10 -12 -62 -31.5t-142 -19.5t-142 19.5t-62 31.5q10 13 62 32.5t142 19.5v0zM1024 410q-94 0 -146 20.5t-59 32.5v85q1 -1 2.5 -1.5t2.5 -0.5
q41 -17 92.5 -25.5t107.5 -8.5t107.5 8.5t92.5 25.5q1 0 2.5 0.5t2.5 1.5v-85q-7 -12 -59 -32.5t-146 -20.5v0z" />
    <glyph glyph-name="uniE65D" unicode="database" 
d="M1850 1781q-38 25 -91.5 47t-120.5 41q-67 18 -144 32.5t-161.5 24.5t-175 15t-184.5 5t-184.5 -5t-175.5 -15t-162 -24.5t-144 -32.5q-67 -19 -120 -41t-91 -47q-48 -31 -72 -67t-24 -76v-1228q0 -40 24 -76t72 -67q38 -25 91 -47t120 -41q67 -18 144 -32.5t162 -24.5
t175.5 -15t184.5 -5t184.5 5t175 15t161.5 24.5t144 32.5q67 19 120.5 41t91.5 47q48 31 72 67t24 76v1228q0 40 -24 76t-72 67v0zM335 1770q63 18 137 31.5t155 23t168 14t178 4.5q90 0 177.5 -4.5t168.5 -14t154.5 -23t137.5 -31.5q138 -38 185 -76t47 -56q0 -17 -47 -55
t-185 -76q-64 -18 -137.5 -31.5t-154.5 -23t-168.5 -14t-177.5 -4.5q-91 0 -178 4.5t-168 14t-155 23t-137 31.5q-138 38 -185.5 76t-47.5 55q0 18 47.5 56t185.5 76v0zM1611 278q-64 -18 -137.5 -31.5t-154.5 -23t-168.5 -14t-177.5 -4.5q-91 0 -178 4.5t-168 14t-155 23
t-137 31.5q-138 38 -185.5 76t-47.5 56v262q38 -23 89.5 -44t115.5 -39q67 -19 144 -33t162 -24t175.5 -15t184.5 -5t184.5 5t175 15t161.5 24t144 33q65 18 116 39t89 44v-262q0 -18 -47 -56t-185 -76v0zM1611 688q-64 -18 -137.5 -31.5t-154.5 -23t-168.5 -14.5t-177.5 -5
q-91 0 -178 5t-168 14.5t-155 23t-137 31.5q-138 38 -185.5 76t-47.5 55v263q38 -24 89.5 -45t115.5 -39q67 -18 144 -32.5t162 -24t175.5 -14.5t184.5 -5t184.5 5t175 14.5t161.5 24t144 32.5q65 18 116 39t89 45v-263q0 -17 -47 -55t-185 -76v0zM1611 1097
q-64 -18 -137.5 -31.5t-154.5 -22.5t-168.5 -14t-177.5 -5q-91 0 -178 5t-168 14t-155 22.5t-137 31.5q-138 38 -185.5 76t-47.5 56v263q38 -24 89.5 -45t115.5 -39q67 -19 144 -33t162 -24t175.5 -15t184.5 -5t184.5 5t175 15t161.5 24t144 33q65 18 116 39t89 45v-263
q0 -18 -47 -56t-185 -76v0z" />
    <glyph glyph-name="uniE65E" unicode="database&#x2d;add" 
d="M1850 1781q-38 25 -91.5 47t-120.5 41q-67 18 -144 32.5t-161.5 24.5t-175 15t-184.5 5t-184.5 -5t-175.5 -15t-162 -24.5t-144 -32.5q-67 -19 -120 -41t-91 -47q-48 -31 -72 -67t-24 -76v-1228q0 -40 24 -76t72 -67q38 -25 91 -47t120 -41q67 -18 144 -32.5t162 -24.5
t175.5 -15t184.5 -5q21 0 36 15t15 37q0 21 -15 36t-36 15q-91 0 -178 4.5t-168 14t-155 23t-137 31.5q-138 38 -185.5 76t-47.5 56v262q38 -23 89.5 -44t115.5 -39q67 -19 144 -33t162 -24t175.5 -15t184.5 -5q21 0 36 15t15 36t-15 36t-36 15q-91 0 -178 5t-168 14.5
t-155 23t-137 31.5q-138 38 -185.5 76t-47.5 55v263q38 -24 89.5 -45t115.5 -39q67 -18 144 -32.5t162 -24t175.5 -14.5t184.5 -5t184.5 5t175 14.5t161.5 24t144 32.5q65 18 116 39t89 45v-160q0 -22 15 -37t36 -15q22 0 37 15t15 37v716q0 40 -24 76t-72 67v0zM335 1770
q63 18 137 31.5t155 23t168 14t178 4.5q90 0 177.5 -4.5t168.5 -14t154.5 -23t137.5 -31.5q138 -38 185 -76t47 -56q0 -17 -47 -55t-185 -76q-64 -18 -137.5 -31.5t-154.5 -23t-168.5 -14t-177.5 -4.5q-91 0 -178 4.5t-168 14t-155 23t-137 31.5q-138 38 -185.5 76t-47.5 55
q0 18 47.5 56t185.5 76v0zM1611 1097q-64 -18 -137.5 -31.5t-154.5 -22.5t-168.5 -14t-177.5 -5q-91 0 -178 5t-168 14t-155 22.5t-137 31.5q-138 38 -185.5 76t-47.5 56v263q38 -24 89.5 -45t115.5 -39q67 -19 144 -33t162 -24t175.5 -15t184.5 -5t184.5 5t175 15t161.5 24
t144 33q65 18 116 39t89 45v-263q0 -18 -47 -56t-185 -76v0zM1587 -102q-95 0 -179 36t-146.5 98.5t-99 146.5t-36.5 179q0 96 36.5 180t99 146.5t146.5 98.5t179 36t179 -36t146.5 -98.5t99 -146.5t36.5 -180q0 -95 -36.5 -179t-99 -146.5t-146.5 -98.5t-179 -36v0z
M1587 717q-74 0 -139 -28.5t-114 -77t-77 -113.5t-28 -140q0 -74 28 -139t77 -114t114 -77t139 -28t139.5 28t114 77t77 114t28.5 139q0 75 -28.5 140t-77 113.5t-114 77t-139.5 28.5v0zM1792 410h-154v153q0 21 -15 36t-36 15t-36 -15t-15 -36v-153h-154q-21 0 -36 -15
t-15 -37q0 -21 15 -36t36 -15h154v-153q0 -22 15 -37t36 -15t36 15t15 37v153h154q21 0 36 15t15 36q0 22 -15 37t-36 15v0z" />
    <glyph glyph-name="uniE65F" unicode="database&#x2d;remove" 
d="M1850 1781q-38 25 -91.5 47t-120.5 41q-67 18 -144 32.5t-161.5 24.5t-175 15t-184.5 5t-184.5 -5t-175.5 -15t-162 -24.5t-144 -32.5q-67 -19 -120 -41t-91 -47q-48 -31 -72 -67t-24 -76v-1228q0 -40 24 -76t72 -67q38 -25 91 -47t120 -41q67 -18 144 -32.5t162 -24.5
t175.5 -15t184.5 -5q21 0 36 15t15 37q0 21 -15 36t-36 15q-91 0 -178 4.5t-168 14t-155 23t-137 31.5q-138 38 -185.5 76t-47.5 56v262q38 -23 89.5 -44t115.5 -39q67 -19 144 -33t162 -24t175.5 -15t184.5 -5q21 0 36 15t15 36t-15 36t-36 15q-91 0 -178 5t-168 14.5
t-155 23t-137 31.5q-138 38 -185.5 76t-47.5 55v263q38 -24 89.5 -45t115.5 -39q67 -18 144 -32.5t162 -24t175.5 -14.5t184.5 -5t184.5 5t175 14.5t161.5 24t144 32.5q65 18 116 39t89 45v-160q0 -22 15 -37t36 -15q22 0 37 15t15 37v716q0 40 -24 76t-72 67v0zM335 1770
q63 18 137 31.5t155 23t168 14t178 4.5q90 0 177.5 -4.5t168.5 -14t154.5 -23t137.5 -31.5q138 -38 185 -76t47 -56q0 -17 -47 -55t-185 -76q-64 -18 -137.5 -31.5t-154.5 -23t-168.5 -14t-177.5 -4.5q-91 0 -178 4.5t-168 14t-155 23t-137 31.5q-138 38 -185.5 76t-47.5 55
q0 18 47.5 56t185.5 76v0zM1611 1097q-64 -18 -137.5 -31.5t-154.5 -22.5t-168.5 -14t-177.5 -5q-91 0 -178 5t-168 14t-155 22.5t-137 31.5q-138 38 -185.5 76t-47.5 56v263q38 -24 89.5 -45t115.5 -39q67 -19 144 -33t162 -24t175.5 -15t184.5 -5t184.5 5t175 15t161.5 24
t144 33q65 18 116 39t89 45v-263q0 -18 -47 -56t-185 -76v0zM1587 -102q-95 0 -179 36t-146.5 98.5t-99 146.5t-36.5 179q0 96 36.5 180t99 146.5t146.5 98.5t179 36t179 -36t146.5 -98.5t99 -146.5t36.5 -180q0 -95 -36.5 -179t-99 -146.5t-146.5 -98.5t-179 -36v0z
M1587 717q-74 0 -139 -28.5t-114 -77t-77 -113.5t-28 -140q0 -74 28 -139t77 -114t114 -77t139 -28t139.5 28t114 77t77 114t28.5 139q0 75 -28.5 140t-77 113.5t-114 77t-139.5 28.5v0zM1792 307h-410q-21 0 -36 15t-15 36q0 22 15 37t36 15h410q21 0 36 -15t15 -37
q0 -21 -15 -36t-36 -15v0z" />
    <glyph glyph-name="uniE660" unicode="database&#x2d;lock" 
d="M1850 1781q-38 25 -91.5 47t-120.5 41q-67 18 -144 32.5t-161.5 24.5t-175 15t-184.5 5t-184.5 -5t-175.5 -15t-162 -24.5t-144 -32.5q-67 -19 -120 -41t-91 -47q-48 -31 -72 -67t-24 -76v-1228q0 -40 24 -76t72 -67q38 -25 91 -47t120 -41q67 -18 144 -32.5t162 -24.5
t175.5 -15t184.5 -5q52 0 104.5 2t103.5 5q21 1 35 17t13 37q-2 21 -18 35t-37 13q-49 -3 -99.5 -4.5t-101.5 -1.5q-91 0 -178 4.5t-168 14t-155 23t-137 31.5q-138 38 -185.5 76t-47.5 56v262q38 -23 89.5 -44t115.5 -39q67 -19 144 -33t162 -24t175.5 -15t184.5 -5
q80 0 158.5 3.5t153.5 11.5q21 2 34.5 18.5t11.5 37.5t-18.5 34.5t-37.5 11.5q-73 -7 -148.5 -11t-153.5 -4q-91 0 -178 5t-168 14.5t-155 23t-137 31.5q-138 38 -185.5 76t-47.5 55v263q38 -24 89.5 -45t115.5 -39q67 -18 144 -32.5t162 -24t175.5 -14.5t184.5 -5t184.5 5
t175 14.5t161.5 24t144 32.5q65 18 116 39t89 45v-160q0 -22 15 -37t36 -15q22 0 37 15t15 37v716q0 40 -24 76t-72 67v0zM335 1770q63 18 137 31.5t155 23t168 14t178 4.5q90 0 177.5 -4.5t168.5 -14t154.5 -23t137.5 -31.5q138 -38 185 -76t47 -56q0 -17 -47 -55t-185 -76
q-64 -18 -137.5 -31.5t-154.5 -23t-168.5 -14t-177.5 -4.5q-91 0 -178 4.5t-168 14t-155 23t-137 31.5q-138 38 -185.5 76t-47.5 55q0 18 47.5 56t185.5 76v0zM1611 1097q-64 -18 -137.5 -31.5t-154.5 -22.5t-168.5 -14t-177.5 -5q-91 0 -178 5t-168 14t-155 22.5t-137 31.5
q-138 38 -185.5 76t-47.5 56v263q38 -24 89.5 -45t115.5 -39q67 -19 144 -33t162 -24t175.5 -15t184.5 -5t184.5 5t175 15t161.5 24t144 33q65 18 116 39t89 45v-263q0 -18 -47 -56t-185 -76v0zM1946 503v60q0 53 -20.5 99.5t-55 81.5t-81 55t-99.5 20t-100 -20t-81.5 -55
t-54.5 -81.5t-20 -99.5v-60q-45 -16 -74 -55.5t-29 -89.5v-307q0 -63 45 -108t109 -45h409q64 0 109 45t45 108v307q0 50 -29 89.5t-73 55.5v0zM1690 717q63 0 108 -45t45 -109v-51h-307v51q0 64 45 109t109 45v0zM1946 51q0 -21 -15 -36t-37 -15h-409q-21 0 -36 15t-15 36
v307q0 22 15 37t36 15h409q22 0 37 -15t15 -37v-307v0z" />
    <glyph glyph-name="uniE661" unicode="database&#x2d;refresh" 
d="M1794 85q-14 16 -35 17.5t-37 -12.5q-49 -44 -110.5 -67t-126.5 -23q-72 0 -135 26t-111 71.5t-78 107t-34 132.5l14 -15q8 -7 17.5 -11t19.5 -4q9 0 18.5 4t17.5 11q15 15 15 36.5t-15 36.5l-103 102q-15 15 -36 15t-36 -15l-102 -102q-15 -15 -15 -36.5t15 -36.5
t36 -15t36 15l15 16q5 -92 42.5 -172t99.5 -140t144 -94t175 -34q42 0 83 7.5t79.5 22t74.5 36t68 49.5q15 14 16.5 35t-12.5 37v0zM2033 395q-15 15 -36 15t-36 -15l-16 -16q-4 92 -41.5 172t-100 139.5t-144.5 94t-174 34.5q-42 0 -83 -7.5t-80 -22t-74.5 -36t-67.5 -49.5
q-16 -14 -17.5 -35t13.5 -37q14 -16 35 -17.5t37 12.5q49 44 110 67t127 23q71 0 134.5 -26.5t111.5 -72t77.5 -106.5t34.5 -132l-15 15q-15 15 -36 15t-36 -15t-15 -36.5t15 -36.5l102 -102q8 -8 17.5 -11.5t18.5 -3.5q10 0 19.5 3.5t17.5 11.5l102 102q15 15 15 36.5
t-15 36.5v0zM1850 1781q-38 25 -91.5 47t-120.5 41q-67 18 -144 32.5t-161.5 24.5t-175 15t-184.5 5t-184.5 -5t-175.5 -15t-162 -24.5t-144 -32.5q-67 -19 -120 -41t-91 -47q-48 -31 -72 -67t-24 -76v-1228q0 -34 17 -65t51.5 -58.5t85.5 -52t119 -45.5q58 -18 126.5 -32.5
t144 -25.5t157.5 -17.5t168 -9.5h0.5h0.5q21 0 36 14.5t16 35.5q0 21 -14.5 36.5t-35.5 15.5q-82 3 -160.5 9.5t-151 17t-137.5 24t-120 30.5q-119 37 -160 71.5t-41 51.5v262q33 -20 75.5 -38.5t95.5 -34.5q58 -18 126.5 -32.5t144 -25.5t157.5 -18t168 -9h0.5h0.5
q21 0 36 14t16 35q0 21 -14.5 36.5t-35.5 16.5q-82 2 -160.5 9t-151 17t-137.5 24t-120 31q-119 36 -160 70.5t-41 51.5v263q38 -24 89.5 -45t115.5 -39q67 -18 144 -32.5t162 -24t175.5 -14.5t184.5 -5t184.5 5t175 14.5t161.5 24t144 32.5q65 18 116 39t89 45v-263
q0 -21 15 -36t36 -15q22 0 37 15t15 36v819q0 40 -24 76t-72 67v0zM335 1770q63 18 137 31.5t155 23t168 14t178 4.5q90 0 177.5 -4.5t168.5 -14t154.5 -23t137.5 -31.5q138 -38 185 -76t47 -56q0 -17 -47 -55t-185 -76q-64 -18 -137.5 -31.5t-154.5 -23t-168.5 -14
t-177.5 -4.5q-91 0 -178 4.5t-168 14t-155 23t-137 31.5q-138 38 -185.5 76t-47.5 55q0 18 47.5 56t185.5 76v0zM1611 1097q-64 -18 -137.5 -31.5t-154.5 -22.5t-168.5 -14t-177.5 -5q-91 0 -178 5t-168 14t-155 22.5t-137 31.5q-138 38 -185.5 76t-47.5 56v263
q38 -24 89.5 -45t115.5 -39q67 -19 144 -33t162 -24t175.5 -15t184.5 -5t184.5 5t175 15t161.5 24t144 33q65 18 116 39t89 45v-263q0 -18 -47 -56t-185 -76v0z" />
    <glyph glyph-name="uniE662" unicode="database&#x2d;check" 
d="M1850 1781q-38 25 -91.5 47t-120.5 41q-67 18 -144 32.5t-161.5 24.5t-175 15t-184.5 5t-184.5 -5t-175.5 -15t-162 -24.5t-144 -32.5q-67 -19 -120 -41t-91 -47q-48 -31 -72 -67t-24 -76v-1228q0 -40 24 -76t72 -67q38 -25 91 -47t120 -41q67 -18 144 -32.5t162 -24.5
t175.5 -15t184.5 -5q26 0 52 0.5t52 1.5q21 1 35.5 16.5t13.5 36.5q0 21 -15.5 35.5t-36.5 13.5q-25 0 -50.5 -0.5t-50.5 -0.5q-91 0 -178 4.5t-168 14t-155 23t-137 31.5q-138 38 -185.5 76t-47.5 56v262q38 -23 89.5 -44t115.5 -39q67 -19 144 -33t162 -24t175.5 -15
t184.5 -5t184.5 5t175 15t161.5 24t144 33t120.5 41t91.5 47q48 31 72 67t24 75v819q0 40 -24 76t-72 67v0zM335 1770q63 18 137 31.5t155 23t168 14t178 4.5q90 0 177.5 -4.5t168.5 -14t154.5 -23t137.5 -31.5q138 -38 185 -76t47 -56q0 -17 -47 -55t-185 -76
q-64 -18 -137.5 -31.5t-154.5 -23t-168.5 -14t-177.5 -4.5q-91 0 -178 4.5t-168 14t-155 23t-137 31.5q-138 38 -185.5 76t-47.5 55q0 18 47.5 56t185.5 76v0zM1611 688q-64 -18 -137.5 -31.5t-154.5 -23t-168.5 -14.5t-177.5 -5q-91 0 -178 5t-168 14.5t-155 23t-137 31.5
q-138 38 -185.5 76t-47.5 55v263q38 -24 89.5 -45t115.5 -39q67 -18 144 -32.5t162 -24t175.5 -14.5t184.5 -5t184.5 5t175 14.5t161.5 24t144 32.5q65 18 116 39t89 45v-263q0 -17 -47 -55t-185 -76v0zM1611 1097q-64 -18 -137.5 -31.5t-154.5 -22.5t-168.5 -14t-177.5 -5
q-91 0 -178 5t-168 14t-155 22.5t-137 31.5q-138 38 -185.5 76t-47.5 56v263q38 -24 89.5 -45t115.5 -39q67 -19 144 -33t162 -24t175.5 -15t184.5 -5t184.5 5t175 15t161.5 24t144 33q65 18 116 39t89 45v-263q0 -18 -47 -56t-185 -76v0zM1485 -51q-10 0 -19.5 3.5
t-16.5 11.5l-205 205q-15 15 -15 36t15 36t36 15t36 -15l169 -169l476 476q15 15 36 15t36 -15t15 -36t-15 -36l-512 -512q-7 -8 -16.5 -11.5t-19.5 -3.5v0z" />
    <glyph glyph-name="uniE663" unicode="database&#x2d;history" 
d="M1850 1781q-38 25 -91.5 47t-120.5 41q-67 18 -144 32.5t-161.5 24.5t-175 15t-184.5 5t-184.5 -5t-175.5 -15t-162 -24.5t-144 -32.5q-67 -19 -120 -41t-91 -47q-48 -31 -72 -67t-24 -76v-1228q0 -34 17 -65t51.5 -58.5t85.5 -52t119 -45.5q58 -18 126.5 -32.5
t144 -25.5t157.5 -17.5t168 -9.5h0.5h0.5q21 0 36 14.5t16 35.5q0 21 -14.5 36.5t-35.5 15.5q-82 3 -160.5 9.5t-151 17t-137.5 24t-120 30.5q-119 37 -160 71.5t-41 51.5v262q27 -17 61.5 -32.5t75.5 -29.5q50 -17 110 -32t126.5 -26.5t139.5 -20t150 -13.5h1.5h1.5
q20 0 35 14t16 34q1 21 -13 37t-35 18q-73 4 -142.5 12t-133 19t-120 25t-103.5 30q-100 34 -135 65.5t-35 46.5v263q33 -21 75.5 -39t95.5 -34q58 -18 126.5 -33t144 -25.5t157.5 -17.5t168 -10h0.5h0.5q21 0 36 14.5t16 35.5q0 21 -14.5 36.5t-35.5 16.5q-82 2 -160.5 8.5
t-151 17t-137.5 24t-120 30.5q-119 37 -160 71.5t-41 51.5v263q38 -24 89.5 -45t115.5 -39q67 -19 144 -33t162 -24t175.5 -15t184.5 -5t184.5 5t175 15t161.5 24t144 33q65 18 116 39t89 45v-314q0 -22 15 -37t36 -15q22 0 37 15t15 37v460q0 40 -24 76t-72 67v0z
M1611 1507q-64 -18 -137.5 -31.5t-154.5 -23t-168.5 -14t-177.5 -4.5q-91 0 -178 4.5t-168 14t-155 23t-137 31.5q-138 38 -185.5 76t-47.5 55q0 18 47.5 56t185.5 76q63 18 137 31.5t155 23t168 14t178 4.5q90 0 177.5 -4.5t168.5 -14t154.5 -23t137.5 -31.5
q138 -38 185 -76t47 -56q0 -17 -47 -55t-185 -76v0zM1485 512q-6 0 -12 1.5t-11 3.5l-205 103q-19 9 -25.5 29.5t2.5 38.5q10 19 30 26t39 -3l172 -86l178 179q15 15 36.5 15t36.5 -15t15 -36t-15 -36l-205 -205q-7 -7 -16.5 -11t-19.5 -4v0zM1485 0q-117 0 -219.5 44.5
t-179 121t-120.5 179t-44 218.5q0 117 44 219.5t120.5 179t179 120.5t219.5 44q116 0 218.5 -44t179 -120.5t121 -179t44.5 -219.5q0 -116 -44.5 -218.5t-121 -179t-179 -121t-218.5 -44.5v0zM1485 1024q-95 0 -179 -36.5t-146.5 -99t-99 -146.5t-36.5 -179t36.5 -179
t99 -146.5t146.5 -99t179 -36.5t179 36.5t146.5 99t99 146.5t36.5 179t-36.5 179t-99 146.5t-146.5 99t-179 36.5v0z" />
    <glyph glyph-name="uniE664" unicode="database&#x2d;upload" 
d="M1214 548l-205 205q-15 15 -36 15t-36 -15l-205 -205q-15 -15 -15 -36t15 -36t36 -15t36 15l118 117v-439q0 -22 15 -37t36 -15t36 15t15 37v439l117 -117q8 -8 17.5 -11.5t19.5 -3.5q9 0 18.5 3.5t17.5 11.5q15 15 15 36t-15 36v0zM1850 1781q-38 25 -91.5 47t-120.5 41
q-67 18 -144 32.5t-161.5 24.5t-175 15t-184.5 5t-184.5 -5t-175.5 -15t-162 -24.5t-144 -32.5q-67 -19 -120 -41t-91 -47q-48 -31 -72 -67t-24 -76v-1228q0 -64 60 -116.5t179 -93.5q50 -17 110 -31.5t126.5 -26t139.5 -20t150 -13.5h1.5h1.5q20 0 35 13.5t16 34.5t-13 37
t-35 17q-73 5 -142.5 13t-133 18.5t-120 24.5t-103.5 30q-100 35 -135 66.5t-35 46.5v262q16 -9 33.5 -18.5t37.5 -17.5q35 -16 77.5 -30t91 -26t102.5 -22.5t112 -18.5h4h3q19 0 33.5 12.5t17.5 31.5q3 21 -10 38t-34 20q-55 7 -105.5 16.5t-95.5 21t-84 24t-71 26.5
q-62 28 -87 52t-25 38v263q38 -24 89.5 -45t115.5 -39q67 -18 144 -32.5t162 -24t175.5 -14.5t184.5 -5t184.5 5t175 14.5t161.5 24t144 32.5q65 18 116 39t89 45v-263q0 -14 -25 -38t-86 -52q-33 -14 -72 -26.5t-84 -24t-95.5 -21t-105.5 -16.5q-21 -3 -33.5 -20t-9.5 -38
q2 -19 16.5 -31.5t33.5 -12.5h4h3q59 8 113 18.5t102 22.5t90.5 26t78.5 30q20 8 37.5 17.5t32.5 18.5v-262q0 -15 -34.5 -46.5t-135.5 -66.5q-47 -16 -103 -30t-119.5 -24.5t-133 -18.5t-143.5 -13q-21 -1 -35 -17t-12 -37q1 -21 15.5 -34.5t35.5 -13.5h1h2
q77 5 149.5 13.5t139.5 20t126.5 26t110.5 31.5q119 41 179 93.5t60 116.5v1228q0 40 -24 76t-72 67v0zM335 1770q63 18 137 31.5t155 23t168 14t178 4.5q90 0 177.5 -4.5t168.5 -14t154.5 -23t137.5 -31.5q138 -38 185 -76t47 -56q0 -17 -47 -55t-185 -76
q-64 -18 -137.5 -31.5t-154.5 -23t-168.5 -14t-177.5 -4.5q-91 0 -178 4.5t-168 14t-155 23t-137 31.5q-138 38 -185.5 76t-47.5 55q0 18 47.5 56t185.5 76v0zM1611 1097q-64 -18 -137.5 -31.5t-154.5 -22.5t-168.5 -14t-177.5 -5q-91 0 -178 5t-168 14t-155 22.5t-137 31.5
q-138 38 -185.5 76t-47.5 56v263q38 -24 89.5 -45t115.5 -39q67 -19 144 -33t162 -24t175.5 -15t184.5 -5t184.5 5t175 15t161.5 24t144 33q65 18 116 39t89 45v-263q0 -18 -47 -56t-185 -76v0z" />
    <glyph glyph-name="uniE665" unicode="database&#x2d;download" 
d="M1214 343q-15 15 -36.5 15t-36.5 -15l-117 -117v440q0 21 -15 36t-36 15t-36 -15t-15 -36v-440l-118 117q-15 15 -36 15t-36 -15t-15 -36t15 -36l205 -205q7 -7 16.5 -11t19.5 -4t19.5 4t16.5 11l205 205q15 15 15 36t-15 36v0zM1850 1781q-38 25 -91.5 47t-120.5 41
q-67 18 -144 32.5t-161.5 24.5t-175 15t-184.5 5t-184.5 -5t-175.5 -15t-162 -24.5t-144 -32.5q-67 -19 -120 -41t-91 -47q-48 -31 -72 -67t-24 -76v-1228q0 -59 51.5 -108.5t154.5 -88.5q43 -17 93.5 -31.5t108 -26.5t121 -21.5t132.5 -16.5h2h3q19 0 34 13t17 33
q2 21 -11.5 37.5t-34.5 18.5q-65 6 -125 15t-114.5 20.5t-102 25t-86.5 28.5q-78 30 -109.5 57.5t-31.5 44.5v262q27 -17 61.5 -32.5t75.5 -29.5q50 -17 110 -32t126.5 -26.5t139.5 -20t150 -13.5h1.5h1.5q20 0 35 14t16 34q1 21 -13 37t-35 18q-73 4 -142.5 12t-133 19
t-120 25t-103.5 30q-100 34 -135 65.5t-35 46.5v263q38 -24 89.5 -45t115.5 -39q67 -18 144 -32.5t162 -24t175.5 -14.5t184.5 -5t184.5 5t175 14.5t161.5 24t144 32.5q65 18 116 39t89 45v-263q0 -15 -34.5 -46.5t-135.5 -65.5q-47 -16 -103 -30t-119.5 -25t-133 -19
t-143.5 -12q-21 -2 -35 -18t-13 -37q2 -20 16.5 -34t35.5 -14h1h2q77 5 149.5 13.5t139.5 20t126.5 26.5t110.5 32q41 14 75 29.5t61 32.5v-262q0 -17 -31 -44.5t-109 -57.5q-39 -15 -87 -28.5t-102.5 -25t-114.5 -20.5t-124 -15q-21 -2 -34.5 -18.5t-11.5 -37.5
q2 -20 16.5 -33t34.5 -13h2.5h2.5q68 7 131.5 16.5t121 21.5t108.5 26.5t94 31.5q102 39 154 88.5t52 108.5v1228q0 40 -24 76t-72 67v0zM335 1770q63 18 137 31.5t155 23t168 14t178 4.5q90 0 177.5 -4.5t168.5 -14t154.5 -23t137.5 -31.5q138 -38 185 -76t47 -56
q0 -17 -47 -55t-185 -76q-64 -18 -137.5 -31.5t-154.5 -23t-168.5 -14t-177.5 -4.5q-91 0 -178 4.5t-168 14t-155 23t-137 31.5q-138 38 -185.5 76t-47.5 55q0 18 47.5 56t185.5 76v0zM1611 1097q-64 -18 -137.5 -31.5t-154.5 -22.5t-168.5 -14t-177.5 -5q-91 0 -178 5
t-168 14t-155 22.5t-137 31.5q-138 38 -185.5 76t-47.5 56v263q38 -24 89.5 -45t115.5 -39q67 -19 144 -33t162 -24t175.5 -15t184.5 -5t184.5 5t175 15t161.5 24t144 33q65 18 116 39t89 45v-263q0 -18 -47 -56t-185 -76v0z" />
    <glyph glyph-name="uniE666" unicode="hosting" 
d="M1792 1024h-102q-22 0 -37 15t-15 36t15 36t37 15h102q21 0 36 -15t15 -36t-15 -36t-36 -15v0zM1792 614h-102q-22 0 -37 15t-15 37q0 21 15 36t37 15h102q21 0 36 -15t15 -36q0 -22 -15 -37t-36 -15v0zM1792 205h-102q-22 0 -37 15t-15 36t15 36t37 15h102q21 0 36 -15
t15 -36t-15 -36t-36 -15v0zM2048 1178q0 48 -17 111t-42 105l-255 438q-28 48 -85 81t-113 33h-1024q-56 0 -113 -33t-85 -81l-255 -438q-25 -42 -42 -105t-17 -111v-205q0 -30 10.5 -56t28.5 -47q-18 -20 -28.5 -46.5t-10.5 -55.5v-205q0 -29 10.5 -55.5t28.5 -46.5
q-18 -21 -28.5 -47t-10.5 -56v-307q0 -63 45 -108t109 -45h1740q64 0 109 45t45 108v307q0 30 -10.5 56t-28.5 47q18 20 28.5 46.5t10.5 55.5v205q0 29 -10.5 55.5t-28.5 46.5q18 21 28.5 47t10.5 56v205v0zM1946 768v-205q0 -21 -15 -36t-37 -15h-1740q-22 0 -37 15t-15 36
v205q0 21 15 36t37 15h1740q22 0 37 -15t15 -36v0zM154 922q-22 0 -37 15t-15 36v205q0 21 15 36t37 15h1740q22 0 37 -15t15 -36v-205q0 -21 -15 -36t-37 -15h-1740v0zM402 1780q15 25 48 44t62 19h1024q29 0 62 -19t48 -44l255 -437q2 -3 3.5 -6t2.5 -6h-6h-7h-1740h-7h-6
q1 3 2.5 6t3.5 6l255 437v0zM1946 51q0 -21 -15 -36t-37 -15h-1740q-22 0 -37 15t-15 36v307q0 22 15 37t37 15h1740q22 0 37 -15t15 -37v-307v0zM307 666q0 -22 -15 -37t-36 -15t-36 15t-15 37q0 21 15 36t36 15t36 -15t15 -36v0zM512 666q0 -22 -15 -37t-36 -15t-36 15
t-15 37q0 21 15 36t36 15t36 -15t15 -36v0zM717 666q0 -22 -15 -37t-36 -15q-22 0 -37 15t-15 37q0 21 15 36t37 15q21 0 36 -15t15 -36v0zM922 666q0 -22 -15 -37t-37 -15q-21 0 -36 15t-15 37q0 21 15 36t36 15q22 0 37 -15t15 -36v0zM1536 1075q0 -21 -15 -36t-36 -15
t-36 15t-15 36t15 36t36 15t36 -15t15 -36v0zM1536 666q0 -22 -15 -37t-36 -15t-36 15t-15 37q0 21 15 36t36 15t36 -15t15 -36v0zM1536 256q0 -21 -15 -36t-36 -15t-36 15t-15 36t15 36t36 15t36 -15t15 -36v0z" />
    <glyph glyph-name="uniE667" unicode="security" 
d="M973 -102q-4 0 -8 0.5t-8 1.5q-71 24 -149 73.5t-156.5 118.5t-154.5 155.5t-143 184.5q-60 89 -123 206.5t-114.5 263t-84 317t-32.5 368.5q0 21 15 36t36 15q108 0 240 32.5t258 79t232 98t163 89.5q13 9 28.5 9t28.5 -9q57 -38 163.5 -89.5t232.5 -98t257.5 -79
t239.5 -32.5q22 0 37 -15t15 -36q0 -197 -33 -368.5t-84 -317t-114 -263t-124 -206.5q-66 -98 -142 -184.5t-154.5 -155.5t-156.5 -118.5t-149 -73.5q-4 -1 -8 -1.5t-8 -0.5v0zM103 1538q4 -178 36.5 -333.5t80.5 -287t105.5 -239t113.5 -188.5q68 -100 140.5 -181
t142.5 -142.5t134.5 -102.5t116.5 -61q52 20 116.5 61t134.5 102.5t142.5 142.5t139.5 181q56 81 114 188.5t106 239t80 287t37 333.5q-63 4 -128 15.5t-127.5 28t-121 35.5t-108.5 37q-54 21 -108 43.5t-104 45.5t-94 46t-79 45q-35 -22 -79.5 -45t-94 -46t-103.5 -45.5
t-109 -43.5q-49 -18 -107.5 -37t-121.5 -35.5t-127.5 -28t-127.5 -15.5v0z" />
    <glyph glyph-name="uniE668" unicode="shield&#x2d;check" 
d="M973 -102q-4 0 -8 0.5t-8 1.5q-71 24 -149 73.5t-156.5 118.5t-154.5 155.5t-143 184.5q-60 89 -123 206.5t-114.5 263t-84 317t-32.5 368.5q0 21 15 36t36 15q108 0 240 32.5t258 79t232 98t163 89.5q13 9 28.5 9t28.5 -9q57 -38 163.5 -89.5t232.5 -98t257.5 -79
t239.5 -32.5q22 0 37 -15t15 -36q0 -197 -33 -368.5t-84 -317t-114 -263t-124 -206.5q-66 -98 -142 -184.5t-154.5 -155.5t-156.5 -118.5t-149 -73.5q-4 -1 -8 -1.5t-8 -0.5v0zM103 1538q4 -178 36.5 -333.5t80.5 -287t105.5 -239t113.5 -188.5q68 -100 140.5 -181
t142.5 -142.5t134.5 -102.5t116.5 -61q52 20 116.5 61t134.5 102.5t142.5 142.5t139.5 181q56 81 114 188.5t106 239t80 287t37 333.5q-63 4 -128 15.5t-127.5 28t-121 35.5t-108.5 37q-54 21 -108 43.5t-104 45.5t-94 46t-79 45q-35 -22 -79.5 -45t-94 -46t-103.5 -45.5
t-109 -43.5q-49 -18 -107.5 -37t-121.5 -35.5t-127.5 -28t-127.5 -15.5v0zM870 666q-9 0 -18.5 3.5t-17.5 11.5l-205 204q-15 15 -15 36.5t15 36.5t36.5 15t36.5 -15l168 -169l476 476q15 15 36.5 15t36.5 -15t15 -36t-15 -36l-512 -512q-8 -8 -17.5 -11.5t-19.5 -3.5v0z
" />
    <glyph glyph-name="uniE669" unicode="shield&#x2d;alert" 
d="M973 -102q-4 0 -8 0.5t-8 1.5q-71 24 -149 73.5t-156.5 118.5t-154.5 155.5t-143 184.5q-60 89 -123 206.5t-114.5 263t-84 317t-32.5 368.5q0 21 15 36t36 15q108 0 240 32.5t258 79t232 98t163 89.5q13 9 28.5 9t28.5 -9q57 -38 163.5 -89.5t232.5 -98t257.5 -79
t239.5 -32.5q22 0 37 -15t15 -36q0 -197 -33 -368.5t-84 -317t-114 -263t-124 -206.5q-66 -98 -142 -184.5t-154.5 -155.5t-156.5 -118.5t-149 -73.5q-4 -1 -8 -1.5t-8 -0.5v0zM103 1538q4 -178 36.5 -333.5t80.5 -287t105.5 -239t113.5 -188.5q68 -100 140.5 -181
t142.5 -142.5t134.5 -102.5t116.5 -61q52 20 116.5 61t134.5 102.5t142.5 142.5t139.5 181q56 81 114 188.5t106 239t80 287t37 333.5q-63 4 -128 15.5t-127.5 28t-121 35.5t-108.5 37q-54 21 -108 43.5t-104 45.5t-94 46t-79 45q-35 -22 -79.5 -45t-94 -46t-103.5 -45.5
t-109 -43.5q-49 -18 -107.5 -37t-121.5 -35.5t-127.5 -28t-127.5 -15.5v0zM973 819q-21 0 -36 15t-15 36v512q0 22 15 37t36 15t36 -15t15 -37v-512q0 -21 -15 -36t-36 -15v0zM973 512q-21 0 -36 15t-15 36v103q0 21 15 36t36 15t36 -15t15 -36v-103q0 -21 -15 -36t-36 -15
v0z" />
    <glyph glyph-name="uniE66A" unicode="shield&#x2d;cross" 
d="M973 -102q-4 0 -8 0.5t-8 1.5q-71 24 -149 73.5t-156.5 118.5t-154.5 155.5t-143 184.5q-60 89 -123 206.5t-114.5 263t-84 317t-32.5 368.5q0 21 15 36t36 15q108 0 240 32.5t258 79t232 98t163 89.5q13 9 28.5 9t28.5 -9q57 -38 163.5 -89.5t232.5 -98t257.5 -79
t239.5 -32.5q22 0 37 -15t15 -36q0 -197 -33 -368.5t-84 -317t-114 -263t-124 -206.5q-66 -98 -142 -184.5t-154.5 -155.5t-156.5 -118.5t-149 -73.5q-4 -1 -8 -1.5t-8 -0.5v0zM103 1538q4 -178 36.5 -333.5t80.5 -287t105.5 -239t113.5 -188.5q68 -100 140.5 -181
t142.5 -142.5t134.5 -102.5t116.5 -61q52 20 116.5 61t134.5 102.5t142.5 142.5t139.5 181q56 81 114 188.5t106 239t80 287t37 333.5q-63 4 -128 15.5t-127.5 28t-121 35.5t-108.5 37q-54 21 -108 43.5t-104 45.5t-94 46t-79 45q-35 -22 -79.5 -45t-94 -46t-103.5 -45.5
t-109 -43.5q-49 -18 -107.5 -37t-121.5 -35.5t-127.5 -28t-127.5 -15.5v0zM1365 704l-314 269l314 268q16 14 17.5 35t-12.5 37t-35 18t-37 -12l-325 -279l-325 279q-16 14 -37.5 12t-34.5 -18q-14 -16 -12.5 -37t17.5 -35l313 -268l-313 -269q-16 -13 -17.5 -34.5
t12.5 -37.5q7 -9 17.5 -13.5t20.5 -4.5q9 0 17.5 3.5t16.5 9.5l325 278l325 -278q7 -6 15.5 -9.5t17.5 -3.5q11 0 21 4.5t18 13.5q14 16 12.5 37.5t-17.5 34.5v0z" />
    <glyph glyph-name="uniE66B" unicode="lock" 
d="M1485 1126h-51v154q0 95 -36.5 179t-99 146.5t-146.5 99t-179 36.5t-179 -36.5t-146.5 -99t-99 -146.5t-36.5 -179v-154h-51q-64 0 -109 -45t-45 -108v-819q0 -64 45 -109t109 -45h1024q63 0 108 45t45 109v819q0 63 -45 108t-108 45v0zM614 1280q0 74 28.5 139.5t77 114
t114 76.5t139.5 28t139 -28t114 -76.5t77 -114t28 -139.5v-154h-717v154v0zM1536 154q0 -22 -15 -37t-36 -15h-1024q-21 0 -36 15t-15 37v819q0 21 15 36t36 15h1024q21 0 36 -15t15 -36v-819v0z" />
    <glyph glyph-name="uniE66C" unicode="rotation&#x2d;lock" 
d="M1331 1015v60q0 53 -20 99.5t-55 81.5t-81.5 55t-99.5 20t-99.5 -20t-81.5 -55t-55 -81.5t-20 -99.5v-60q-44 -16 -73 -55.5t-29 -89.5v-307q0 -63 45 -108t108 -45h410q64 0 109 45t45 108v307q0 50 -29 89.5t-74 55.5v0zM1075 1229q64 0 109 -45t45 -109v-51h-307v51
q0 64 45 109t108 45v0zM1331 563q0 -21 -15 -36t-36 -15h-410q-21 0 -36 15t-15 36v307q0 22 15 37t36 15h410q21 0 36 -15t15 -37v-307v0zM1075 -102q-68 0 -135 9t-132 27.5t-126.5 46t-119.5 63.5q-56 35 -106.5 76.5t-95 89.5t-82 102t-67.5 112q-10 19 -3.5 39.5
t24.5 29.5q19 10 39.5 3.5t29.5 -25.5q57 -109 139 -196t182 -148t215.5 -94t237.5 -33q180 0 338.5 68.5t277 186.5t187 276.5t68.5 338.5t-68.5 338.5t-187 277t-277 187t-338.5 68.5t-338.5 -68.5t-276.5 -187t-186.5 -277t-68.5 -338.5q0 -19 -13 -33.5t-32 -16.5
q-19 -3 -35 8t-21 30l-102 410q-6 20 5 38.5t32 23.5q20 5 38.5 -6t23.5 -32l38 -154q17 59 41 115.5t55.5 109t69.5 102t82 93.5q69 69 148.5 122t167 89.5t181.5 55t191 18.5q98 0 191.5 -18.5t181 -55t167 -89.5t148.5 -122t122 -148.5t89.5 -167t55 -181t18.5 -191.5
q0 -97 -18.5 -191t-55 -181t-89.5 -167t-122 -148q-69 -69 -148.5 -122.5t-167 -89.5t-181 -54.5t-191.5 -18.5v0z" />
    <glyph glyph-name="uniE66D" unicode="lock&#x32;" 
d="M1382 1843q-95 0 -179 -36t-146.5 -98.5t-98.5 -146.5t-36 -180v-256h-768q-64 0 -109 -45t-45 -108v-819q0 -64 45 -109t109 -45h1024q63 0 108 45t45 109v819q0 63 -45 108t-108 45h-154v256q0 75 28 140t77 113.5t114 77t139 28.5q75 0 140 -28.5t113.5 -77t77 -113.5
t28.5 -140v-102q0 -21 15 -36t36 -15t36 15t15 36v102q0 96 -36 180t-98.5 146.5t-146.5 98.5t-180 36v0zM1178 1024q21 0 36 -15t15 -36v-819q0 -22 -15 -37t-36 -15h-1024q-22 0 -37 15t-15 37v819q0 21 15 36t37 15h1024v0z" />
    <glyph glyph-name="uniE66E" unicode="key" 
d="M1536 1946q-106 0 -199.5 -40.5t-163 -110t-109.5 -162.5t-40 -199q0 -83 24.5 -158t68.5 -137l-1102 -1103q-15 -15 -15 -36t15 -36q7 -8 16.5 -11.5t19.5 -3.5t19.5 3.5t16.5 11.5l118 117l168 -168q8 -8 17.5 -11.5t19.5 -3.5q9 0 18.5 3.5t17.5 11.5q15 15 15 36
t-15 36l-169 169l81 81l169 -169q7 -7 16.5 -11t19.5 -4t19.5 4t16.5 11q15 15 15 36.5t-15 36.5l-168 168l754 754q34 -32 74 -58t84.5 -44t93 -27.5t99.5 -9.5q106 0 199.5 40t163 109.5t109.5 163t40 199.5t-40 199t-109.5 162.5t-163 110t-199.5 40.5v0zM1826 1144
q-29 -29 -62.5 -51.5t-70.5 -37.5t-76.5 -23t-80.5 -8t-80.5 8t-76.5 23t-70.5 37.5t-62.5 51.5t-51 62.5t-37.5 70.5t-23.5 76.5t-8 80.5t8 80.5t23.5 76t37.5 70t51 62.5t62.5 51.5t70.5 37.5t76.5 23t80.5 8t80.5 -8t76.5 -23t70.5 -37.5t62.5 -51.5t51 -62.5t37.5 -70
t23.5 -76t8 -80.5t-8 -80.5t-23.5 -76.5t-37.5 -70.5t-51 -62.5v0z" />
    <glyph glyph-name="uniE66F" unicode="key&#x2d;hole" 
d="M1485 -102h-922q-12 0 -23 5t-18 15t-9 22t1 23l294 1006q-67 31 -121.5 79.5t-93.5 109t-60 130.5t-21 146q0 105 40.5 198.5t110 163t162.5 110t199 40.5t199 -40.5t162.5 -110t110 -163t40.5 -198.5q0 -76 -21 -146t-60 -130.5t-93.5 -109t-121.5 -79.5l294 -1006
q3 -11 1 -23t-9 -22t-18 -15t-23 -5v0zM632 0h784l-288 985q-5 19 4 37.5t29 24.5q61 22 111 60.5t86 89.5t56 111.5t20 125.5q0 84 -32.5 158.5t-88 130.5t-130 88t-159.5 32t-159.5 -32t-130 -88t-88 -130.5t-32.5 -158.5q0 -65 20 -125.5t56 -111.5t86 -89.5t111 -60.5
q20 -6 29 -24.5t4 -37.5l-288 -985v0z" />
    <glyph glyph-name="uniE670" unicode="toggle&#x2d;off" 
d="M1331 205h-614q-72 0 -141 13.5t-133.5 40.5t-123 66t-109.5 90t-90 109.5t-65.5 123t-40.5 133.5t-14 141q0 71 14 140.5t40.5 133.5t65.5 123t90 109q51 51 109.5 90.5t123 66t133.5 40t141 13.5h614q72 0 141 -13.5t133.5 -40t123 -66t109.5 -90.5q51 -50 90 -109
t65.5 -123t40.5 -133.5t14 -140.5q0 -72 -14 -141t-40.5 -133.5t-65.5 -123t-90 -109.5t-109.5 -90t-123 -66t-133.5 -40.5t-141 -13.5v0zM717 1536q-127 0 -239 -48.5t-195.5 -132t-132 -195t-48.5 -238.5t48.5 -239t132 -195.5t195.5 -132t239 -48.5h614q127 0 239 48.5
t195.5 132t132 195.5t48.5 239t-48.5 238.5t-132 195t-195.5 132t-239 48.5h-614v0zM717 512q-85 0 -159.5 32t-130 88t-88 130.5t-32.5 159.5q0 84 32.5 158.5t88 130.5t130 88t159.5 32q84 0 159 -32t130.5 -88t87.5 -130.5t32 -158.5q0 -85 -32 -159.5t-87.5 -130.5
t-130.5 -88t-159 -32v0zM717 1229q-64 0 -120 -24.5t-97.5 -66t-65.5 -97.5t-24 -119q0 -64 24 -120t65.5 -97.5t97.5 -66t120 -24.5q63 0 119 24.5t98 66t66 97.5t24 120q0 63 -24 119t-66 97.5t-98 66t-119 24.5v0z" />
    <glyph glyph-name="uniE671" unicode="toggle&#x2d;on" 
d="M717 205h614q72 0 141 13.5t133.5 40.5t123 66t109.5 90t90 109.5t65.5 123t40.5 133.5t14 141q0 71 -14 140.5t-40.5 133.5t-65.5 123t-90 109q-51 51 -109.5 90.5t-123 66t-133.5 40t-141 13.5h-614q-72 0 -141 -13.5t-133.5 -40t-123 -66t-109.5 -90.5
q-51 -50 -90 -109t-65.5 -123t-40.5 -133.5t-14 -140.5q0 -72 14 -141t40.5 -133.5t65.5 -123t90 -109.5t109.5 -90t123 -66t133.5 -40.5t141 -13.5v0zM1331 1536q127 0 239 -48.5t195.5 -132t132 -195t48.5 -238.5t-48.5 -239t-132 -195.5t-195.5 -132t-239 -48.5h-614
q-127 0 -239 48.5t-195.5 132t-132 195.5t-48.5 239t48.5 238.5t132 195t195.5 132t239 48.5h614v0zM1331 512q85 0 159.5 32t130 88t88 130.5t32.5 159.5q0 84 -32.5 158.5t-88 130.5t-130 88t-159.5 32q-84 0 -159 -32t-130.5 -88t-87.5 -130.5t-32 -158.5
q0 -85 32 -159.5t87.5 -130.5t130.5 -88t159 -32v0zM1331 1229q64 0 120 -24.5t97.5 -66t65.5 -97.5t24 -119q0 -64 -24 -120t-65.5 -97.5t-97.5 -66t-120 -24.5q-63 0 -119 24.5t-98 66t-66 97.5t-24 120q0 63 24 119t66 97.5t98 66t119 24.5v0z" />
    <glyph glyph-name="uniE672" unicode="cog" 
d="M781 -72q-3 0 -6 0.5t-6 1.5q-69 17 -135 44.5t-128 63.5q-18 11 -23.5 31t4.5 38q12 22 18.5 47t6.5 51q0 42 -16 79.5t-44 65t-65 44t-80 16.5q-25 0 -50 -6.5t-48 -18.5q-18 -10 -38 -4.5t-30 23.5q-37 61 -64 127t-45 135q-5 20 4.5 37.5t28.5 24.5q63 21 101.5 74.5
t38.5 119.5t-38.5 119.5t-101.5 74.5q-19 6 -28.5 23.5t-4.5 37.5q18 69 45 135t64 128q10 17 30 22.5t38 -3.5q23 -13 48 -19t50 -6q43 0 80 16t65 43.5t44 65t16 79.5q0 26 -6.5 51t-18.5 47q-10 19 -4.5 39t23.5 30q62 36 128 63.5t135 44.5q19 5 37 -4.5t24 -28.5
q21 -62 74.5 -100.5t119.5 -38.5t119.5 38.5t74.5 100.5q6 19 24 28.5t37 4.5q69 -17 135 -44.5t128 -63.5q18 -10 23.5 -30t-4.5 -39q-12 -22 -18.5 -47t-6.5 -51q0 -42 16 -79.5t44 -65t65 -43.5t80 -16q25 0 50 6t48 19q18 9 38 3.5t30 -22.5q37 -62 64 -128t45 -135
q5 -20 -4.5 -37.5t-28.5 -23.5q-63 -21 -101.5 -74.5t-38.5 -119.5t38.5 -119.5t101.5 -74.5q19 -7 28.5 -24.5t4.5 -37.5q-18 -69 -45 -135t-64 -127q-10 -18 -30 -23.5t-38 4.5q-23 12 -48 18.5t-50 6.5q-43 0 -80 -16.5t-65 -44t-44 -65t-16 -79.5q0 -26 6.5 -51
t18.5 -47q10 -18 4.5 -38t-23.5 -31q-62 -36 -128 -63.5t-135 -44.5q-19 -5 -37 4.5t-24 28.5q-21 63 -74.5 101t-119.5 38t-119.5 -38t-74.5 -101q-5 -16 -18.5 -25.5t-30.5 -9.5v0zM1024 205q43 0 83.5 -11.5t76 -33t64 -52t48.5 -67.5q40 12 78.5 28t75.5 35
q-8 25 -12 50t-4 51q0 63 24 119t65.5 98t97.5 66t120 24q25 0 50.5 -4.5t49.5 -12.5q20 37 36 76t28 79q-38 19 -68 48t-51.5 64t-33 75.5t-11.5 84.5q0 43 11.5 83.5t33 75.5t51.5 64t68 48q-12 40 -28 79t-36 76q-24 -8 -49.5 -12.5t-50.5 -4.5q-64 0 -120 24.5t-97.5 66
t-65.5 97.5t-24 119q0 26 4 51.5t12 49.5q-37 19 -75.5 35t-78.5 28q-20 -37 -48.5 -67.5t-64 -51.5t-76 -33t-83.5 -12t-83.5 12t-76 33t-64 51.5t-48.5 67.5q-40 -12 -78.5 -28t-75.5 -35q8 -24 12 -49.5t4 -51.5q0 -63 -24 -119t-65.5 -97.5t-97.5 -66t-120 -24.5
q-25 0 -50.5 4.5t-49.5 12.5q-20 -37 -36 -76t-28 -79q38 -19 68 -48t51.5 -64t33 -75.5t11.5 -83.5q0 -44 -11.5 -84.5t-33 -75.5t-51.5 -64t-68 -48q12 -40 28 -79t36 -76q24 8 49.5 12.5t50.5 4.5q64 0 120 -24t97.5 -66t65.5 -98t24 -119q0 -26 -4 -51t-12 -50
q37 -19 75.5 -35t78.5 -28q20 37 48.5 67.5t64 52t76 33t83.5 11.5v0zM1024 614q-64 0 -119.5 24.5t-97.5 66t-66 97.5t-24 120q0 63 24 119t66 97.5t97.5 66t119.5 24.5t119.5 -24.5t97.5 -66t66 -97.5t24 -119q0 -64 -24 -120t-66 -97.5t-97.5 -66t-119.5 -24.5v0z
M1024 1126q-42 0 -79.5 -16t-65.5 -43.5t-44 -65t-16 -79.5q0 -43 16 -80t44 -65t65.5 -44t79.5 -16t79.5 16t65.5 44t44 65t16 80q0 42 -16 79.5t-44 65t-65.5 43.5t-79.5 16v0z" />
    <glyph glyph-name="uniE673" unicode="cog&#x32;" 
d="M1364 -41q-5 0 -11 1t-11 4q-9 4 -16 12t-10 18q-16 47 -45 86t-67 66.5t-84 43t-96 15.5t-96 -15.5t-84 -43t-67 -66.5t-45 -86q-3 -10 -10 -18t-16 -12q-10 -5 -20.5 -5.5t-19.5 3.5q-40 15 -78.5 33t-75.5 39.5t-72 45.5t-68 52q-8 6 -12.5 15.5t-5.5 19.5
q-1 11 2.5 20.5t10.5 17.5q33 37 52 81.5t24 91.5t-5 94.5t-35 90.5q-20 36 -49 64.5t-63.5 48t-73.5 30.5t-80 11q-16 0 -31.5 -1.5t-30.5 -4.5q-10 -3 -20.5 -1t-18.5 8q-9 6 -14.5 15t-7.5 19q-7 42 -10.5 84.5t-3.5 85.5q0 42 3.5 84.5t10.5 84.5q2 10 7.5 19t14.5 15
q8 6 18.5 8t20.5 0q15 -3 30.5 -5t31.5 -2q41 0 80 11t73.5 31t63.5 48t49 64q25 43 35 90.5t5 94.5t-24 91.5t-52 81.5q-7 8 -10.5 18t-2.5 20t5.5 19.5t12.5 15.5q33 28 68 52t72 45.5t75.5 39.5t78.5 33q9 4 19.5 3.5t20.5 -5.5q9 -4 16 -12t10 -18q16 -47 45 -86
t67 -66.5t84 -43t96 -15.5t96 15.5t84 43t67 66.5t45 86q3 10 10 18t16 12q10 5 20.5 5.5t19.5 -3.5q40 -15 78.5 -33t75.5 -39.5t72 -45.5t68 -52q8 -6 12.5 -15.5t5.5 -19.5t-2.5 -20t-10.5 -18q-33 -37 -52 -81.5t-24 -91.5t5 -94.5t35 -90.5q20 -36 49 -64t63.5 -48
t73.5 -31t80 -11q16 0 31.5 2t30.5 5q10 2 20.5 0t18.5 -8q9 -6 14.5 -15t7.5 -19q7 -42 10.5 -84.5t3.5 -84.5q0 -43 -3.5 -85.5t-10.5 -84.5q-2 -10 -7.5 -19t-14.5 -15q-8 -6 -18.5 -8t-20.5 1q-15 3 -30.5 4.5t-31.5 1.5q-41 0 -80 -11t-73.5 -30.5t-63.5 -48t-49 -64.5
q-25 -43 -35 -90.5t-5 -94.5t24 -91.5t52 -81.5q7 -8 10.5 -17.5t2.5 -20.5q-1 -10 -5.5 -19.5t-12.5 -15.5q-33 -28 -68 -52t-72 -45.5t-75.5 -39.5t-78.5 -33q-4 -2 -8.5 -2.5t-9.5 -0.5v0zM477 180q41 -31 86 -57t92 -46q26 52 64.5 94.5t86 72.5t103 46.5t115.5 16.5
t115.5 -16.5t103 -46.5t86 -72.5t64.5 -94.5q47 20 92 46t86 57q-32 48 -50 102.5t-20 111t11.5 113t43.5 107.5q27 48 65.5 86t84.5 64.5t98 40.5t107 14h14.5t14.5 -1q3 26 4.5 52t1.5 52q0 25 -1.5 51t-4.5 52q-7 -1 -14.5 -1h-14.5q-55 0 -107 14t-98 41t-84.5 64.5
t-65.5 85.5q-30 51 -43.5 107.5t-11.5 113t20 111t50 102.5q-41 31 -86 57t-92 47q-26 -53 -64.5 -95.5t-86 -72.5t-103 -46.5t-115.5 -16.5t-115.5 16.5t-103 46.5t-86 72.5t-64.5 95.5q-47 -21 -92 -47t-86 -57q32 -48 50 -102.5t20 -111t-11.5 -113t-43.5 -107.5
q-27 -48 -65.5 -85.5t-84.5 -64.5t-98 -41t-107 -14h-14.5t-14.5 1q-3 -26 -4.5 -52t-1.5 -51q0 -26 1.5 -52t4.5 -52q7 1 14.5 1h14.5q55 0 107 -14t98 -40.5t84.5 -64.5t65.5 -86q30 -51 43.5 -107.5t11.5 -113t-20 -111t-50 -102.5v0zM1024 614q-64 0 -119.5 24.5
t-97.5 66t-66 97.5t-24 120q0 63 24 119t66 97.5t97.5 66t119.5 24.5t119.5 -24.5t97.5 -66t66 -97.5t24 -119q0 -64 -24 -120t-66 -97.5t-97.5 -66t-119.5 -24.5v0zM1024 1126q-42 0 -79.5 -16t-65.5 -43.5t-44 -65t-16 -79.5q0 -43 16 -80t44 -65t65.5 -44t79.5 -16
t79.5 16t65.5 44t44 65t16 80q0 42 -16 79.5t-44 65t-65.5 43.5t-79.5 16v0z" />
    <glyph glyph-name="uniE674" unicode="tool&#x34;" 
d="M1715 -104q-46 0 -88.5 17.5t-74.5 49.5h-0.5h-0.5l-789 790q-48 -18 -97.5 -27t-101.5 -9q-116 0 -218.5 44t-179 120.5t-121 179.5t-44.5 219q0 61 12.5 119t37.5 113q5 11 15 19t22 10q13 2 25 -1.5t21 -12.5l298 -298h183v183l-299 299q-8 9 -12 21t-2 25
q3 12 10.5 22t19.5 15q53 24 112 36.5t120 12.5q117 0 219.5 -44t179 -120.5t120.5 -179.5t44 -219q0 -51 -9 -100.5t-27 -97.5l789 -789q33 -33 50.5 -75t17.5 -89q1 -46 -16.5 -88.5t-50.5 -75.5t-75.5 -51t-89.5 -18v0zM1624 36q18 -18 41.5 -27.5t49.5 -9.5t50 9.5
t42 28.5q19 19 28.5 42.5t9.5 49.5t-10 49.5t-28 41.5v0h-1l-813 814q-11 11 -14 26.5t4 30.5q20 45 30.5 92.5t10.5 96.5q0 95 -36.5 179t-99 146.5t-146.5 99t-179 36.5q-30 0 -59.5 -4t-58.5 -11l257 -256q7 -7 11 -16.5t4 -19.5v-256q0 -22 -15 -37t-36 -15h-256
q-11 0 -20 4t-17 11l-256 256q-7 -28 -11 -57.5t-4 -59.5q0 -95 36.5 -179t99 -146.5t146.5 -99t179 -36.5q50 0 97.5 10.5t92.5 30.5q14 6 30 3.5t27 -14.5l814 -813v0z" />
    <glyph glyph-name="uniE675" unicode="screwdriver" 
d="M1909 365l-469 469q-38 38 -91 63t-95 25q-9 0 -15.5 2t-9.5 4v45q0 21 -15 36t-36 15q-11 0 -20.5 -4t-16.5 -11l-66 -66l-695 695l15 15q15 15 15 36.5t-15 36.5l-205 205q-15 15 -36.5 15t-36.5 -15l-102 -103q-15 -15 -15 -36t15 -36l205 -205q7 -8 16.5 -11.5
t19.5 -3.5t19.5 3.5t16.5 11.5l15 15l696 -696l-66 -66q-7 -7 -11 -16t-4 -20q0 -21 15 -36t36 -15h45q2 -3 4 -9.5t2 -16.5q0 -42 25 -95t62 -90l470 -470q22 -22 50.5 -33.5t58.5 -11.5q29 0 57.5 11.5t50.5 33.5l111 111q45 45 45 109t-45 109v0zM124 1792l30 30
l132 -132l-30 -30l-132 132v0zM1126 691q0 35 -13 64t-35 46l67 67q17 -22 45.5 -35.5t63.5 -13.5q20 0 54.5 -16.5t58.5 -40.5l301 -301l-183 -184l-301 301q-24 24 -41 59t-17 54v0zM1837 220l-111 -111q-15 -15 -36.5 -15t-36.5 15l-96 96l184 183l96 -96q15 -15 15 -36
t-15 -36v0z" />
    <glyph glyph-name="uniE676" unicode="hammer&#x2d;wrench" 
d="M1904 465l-464 422l54 61q35 -13 71 -19.5t73 -6.5q85 0 159.5 32t130.5 87.5t88 130.5t32 159q0 49 -11.5 97t-34.5 92q-5 10 -15 17.5t-22 9.5q-13 1 -24.5 -2.5t-19.5 -12.5l-201 -201h-82v81l201 201q9 9 13 20.5t2 23.5t-9 22t-18 16q-44 22 -92 34t-97 12
q-84 0 -158.5 -32.5t-130.5 -88t-88 -130t-32 -159.5q0 -37 6.5 -73.5t19.5 -70.5l-73 -65l-253 229q-7 7 -11 15.5t-4 18.5q0 9 3.5 18t10.5 16l235 234q11 11 14 26.5t-3 29.5q-6 15 -19 23.5t-29 8.5q-3 0 -67.5 -1t-146.5 -6q-156 -9 -210.5 -25.5t-72.5 -33.5
l-358 -359q-7 -7 -11 -16.5t-4 -19.5v-51h-51q-10 0 -19.5 -4t-16.5 -11l-103 -103q-15 -15 -15 -36t15 -36l205 -205q15 -15 36 -15t36 15l103 103q7 7 11 16.5t4 19.5v51h51q10 0 19.5 4t16.5 11l81 81q7 7 15.5 10.5t17.5 3.5q10 0 19 -4t16 -11l216 -239l-461 -415
q-24 -21 -36.5 -48.5t-13.5 -57.5q-1 -31 10.5 -59t33.5 -50l111 -111q21 -22 48 -33t57 -11h2h2q30 1 57.5 13.5t48.5 35.5l403 448l408 -448q21 -24 50 -36.5t60 -12.5q30 0 57 11t48 33l111 111q22 22 33.5 50t10.5 59q0 30 -13 57.5t-36 48.5v0zM1362 1196
q-15 32 -23 66t-8 69q0 64 24.5 120t66 97.5t97.5 65.5t119 24q19 0 37 -2t36 -6l-160 -160q-7 -7 -11 -16.5t-4 -19.5v-154q0 -21 15 -36t36 -15h154q10 0 19.5 4t16.5 11l160 160q4 -18 6.5 -36t2.5 -37q0 -63 -24.5 -119t-66 -98t-97.5 -66t-120 -24q-35 0 -69 8t-66 23
q-15 8 -32 4.5t-28 -15.5l-79 -88l-106 96l93 83q12 12 15.5 29t-4.5 32v0zM662 1236q-29 0 -56.5 -11t-48.5 -32l-66 -67h-81q-22 0 -37 -15t-15 -36v-81l-51 -51l-132 132l51 51h81q21 0 36 15t15 37v81l342 342q5 3 49 13.5t179 18.5q19 1 37 1.5t35 1.5l-145 -145
q-22 -22 -33 -50t-10 -59q0 -30 13 -57.5t36 -48.5l89 -82l-96 -96l-82 89q-21 24 -50 37t-60 13v-1zM696 213q-7 -7 -15.5 -11.5t-17.5 -4.5t-18 3.5t-16 10.5l-111 111q-7 7 -10.5 16t-3.5 18q1 9 5 17.5t11 15.5l462 415l124 -135l-410 -456v0zM1837 322l-111 -111
q-7 -7 -15.5 -10.5t-17.5 -3.5q-10 0 -19 4t-15 12l-736 809l103 103l809 -736q8 -6 12 -14.5t4 -18.5q0 -9 -3.5 -18t-10.5 -16v0z" />
    <glyph glyph-name="uniE677" unicode="hammer" 
d="M1904 465l-975 886q-7 7 -11 15.5t-4 18.5q0 9 3.5 18t10.5 16l235 234q11 11 14 26.5t-3 29.5q-6 15 -19 23.5t-29 8.5q-3 0 -67.5 -1t-146.5 -6q-156 -9 -210.5 -25.5t-72.5 -33.5l-358 -359q-7 -7 -11 -16.5t-4 -19.5v-51h-51q-10 0 -19.5 -4t-16.5 -11l-103 -103
q-15 -15 -15 -36t15 -36l205 -205q15 -15 36 -15t36 15l103 103q7 7 11 16.5t4 19.5v51h51q10 0 19.5 4t16.5 11l81 81q7 7 15.5 10.5t17.5 3.5q10 0 19 -4t16 -11l886 -975q21 -24 50 -36.5t60 -12.5q30 0 57 11t48 33l111 111q22 22 33.5 50t10.5 59q0 30 -13 57.5
t-36 48.5v0zM662 1236q-29 0 -56.5 -11t-48.5 -32l-66 -67h-81q-22 0 -37 -15t-15 -36v-81l-51 -51l-132 132l51 51h81q21 0 36 15t15 37v81l342 342q5 3 49 13.5t179 18.5q19 1 37 1.5t35 1.5l-145 -145q-22 -22 -33 -50t-10 -59q0 -30 13 -57.5t36 -48.5l89 -82l-96 -96
l-82 89q-21 24 -50 37t-60 13v-1zM1837 322l-111 -111q-7 -7 -15.5 -10.5t-17.5 -3.5q-10 0 -19 4t-15 12l-736 809l103 103l809 -736q8 -6 12 -14.5t4 -18.5q0 -9 -3.5 -18t-10.5 -16v0z" />
    <glyph glyph-name="uniE678" unicode="saw" 
d="M1331 1587q0 -21 -15 -36t-36 -15t-36 15t-15 36t15 36t36 15t36 -15t15 -36v0zM2032 1894q-15 25 -42 38.5t-60 13.5h-1q-108 0 -198.5 -1t-167.5 -5.5t-142.5 -14t-123.5 -27.5q-60 -18 -111.5 -46t-98 -68.5t-90 -95t-86.5 -125.5l-884 -1398q-33 -53 -22.5 -114
t59.5 -94l77 -51q7 -4 14 -6t15 -2h291q21 0 36 15t15 36v153h154q21 0 36 15t15 37v153h153q22 0 37 15t15 36v154h153q21 0 36 15t15 36v154h154q21 0 36 15t15 36v154h154q21 0 36 15t15 36v461q0 42 16 79.5t44 65t65 43.5t80 16h86q57 0 113 35t81 85l11 22
q15 30 15 60t-15 54v0zM1280 1024q-21 0 -36 -15t-15 -36v-154h-154q-21 0 -36 -15t-15 -36v-154h-154q-21 0 -36 -15t-15 -36v-153h-153q-22 0 -37 -15t-15 -37v-153h-153q-21 0 -36 -15t-15 -36v-154h-225l-64 43q-14 9 -16 29t9 38l857 1357l463 -268v-175h-154v0z
M1940 1826l-10 -22q-13 -25 -44 -44t-59 -19h-86q-64 0 -120 -24.5t-97.5 -66t-65.5 -97.5t-24 -119v-116l-408 236q72 108 147 167t176.5 86t240.5 31.5t339 4.5h1q6 0 9.5 -1t5.5 -2q0 -1 -1 -5t-4 -9v0z" />
    <glyph glyph-name="uniE679" unicode="axe" 
d="M2045 340q-1 21 -10 39.5t-25 31.5l-248 210q-16 13 -37.5 32.5t-36.5 33.5l-522 499l16 15q45 45 45 109t-45 109l-275 275q-22 21 -50 33t-59 12t-59 -12t-50 -33l-26 -27l-79 75q-30 29 -72.5 28.5t-71.5 -29.5l-133 -133q-29 -29 -29.5 -71.5t28.5 -72.5l54 -57
q-35 -19 -72.5 -33t-76.5 -23.5t-79 -14.5t-81 -5q-21 0 -36 -15t-15 -36q0 -77 14.5 -151t43.5 -143t71 -132t96 -117t117 -96t132 -71t143 -43.5t151 -14.5q21 0 36 15t15 36q0 78 17.5 152t50.5 141l474 -496q14 -15 33.5 -36.5t32.5 -37.5l210 -248q13 -16 31.5 -25
t39.5 -10h2h2q19 0 37 7.5t32 21.5l235 235q15 14 22.5 33.5t6.5 39.5v0zM380 1534q-1 1 -1 1.5t1 0.5l132 132q0 1 0.5 1t1.5 -1l77 -73l-69 -69q-18 -17 -36 -33t-38 -30l-68 71v0zM719 616q-123 9 -231 60t-190.5 133.5t-133.5 190.5t-60 231q70 4 136.5 21t128.5 45
t119 67.5t106 89.5l168 167q7 8 16.5 11.5t19.5 3.5t19.5 -3.5t16.5 -11.5l275 -275q15 -15 15 -36t-15 -36l-167 -168q-50 -49 -89.5 -106t-67.5 -119t-45 -128.5t-21 -136.5v0zM1712 108l-206 244q-14 17 -35 40t-36 39l-494 516q16 23 34.5 45t38.5 42l80 79l523 -500
q16 -15 39 -36t40 -35l244 -206l-228 -228v0z" />
    <glyph glyph-name="uniE67A" unicode="axe&#x32;" 
d="M2045 238q-1 20 -10 39t-25 32l-248 209q-16 13 -37.5 32.5t-36.5 33.5l-496 475q67 32 140.5 49.5t152.5 17.5q21 0 36 15t15 37q0 77 -14.5 151t-43.5 143t-71 131.5t-96 117.5q-54 54 -117 96t-132 70.5t-143 43.5t-151 15q-21 0 -36 -15t-15 -37q0 -41 -5 -81.5
t-15 -79.5t-24 -75.5t-32 -71.5l-57 54q-30 29 -72.5 28.5t-71.5 -30.5l-133 -132q-29 -30 -29.5 -72.5t28.5 -72.5l54 -56q-35 -18 -72 -32.5t-75.5 -24t-79 -14.5t-82.5 -5q-21 0 -36 -15t-15 -36q0 -77 14.5 -151t43.5 -143t71 -132t96 -117q54 -55 117 -97t132 -70.5
t143 -43t151 -14.5q21 0 36 15t15 36q0 78 17.5 152t50.5 140l474 -495q14 -15 33.5 -37t32.5 -37l210 -248q13 -16 31.5 -25.5t39.5 -9.5q1 0 2 -0.5t2 -0.5q19 0 37 8t32 22l235 234q15 15 22.5 34.5t6.5 39.5v0zM380 1432q-1 0 -1 0.5t1 1.5l132 132h0.5h1.5l71 -68
q-29 -40 -63.5 -74t-73.5 -64l-68 72v0zM719 514q-123 9 -231 60t-190.5 133t-133.5 190t-60 231q70 5 136.5 22t128.5 45t119 67.5t106 88.5q50 50 89.5 106.5t67.5 119t45 129t21 135.5q123 -9 231 -60t190.5 -133t133.5 -190t60 -231q-70 -5 -136.5 -21.5t-128.5 -45
t-119 -67.5t-106 -89q-50 -50 -89.5 -106.5t-67.5 -119t-45 -129t-21 -135.5v0zM1712 5l-206 245q-14 17 -35 40t-36 38l-494 517q33 46 73.5 86t86.5 73l516 -494q16 -15 39 -35.5t40 -34.5l244 -206l-228 -229v0z" />
    <glyph glyph-name="uniE67B" unicode="shovel" 
d="M2003 1593l-307 308q-22 21 -50 33t-59 12t-59 -12t-49 -33q-22 -22 -33.5 -50t-11.5 -59v-235l-410 -409l-15 15q-15 15 -36 15t-36 -15l-76 -76l-199 198q-21 22 -49.5 33.5t-58.5 11.5q-31 0 -59 -11.5t-50 -33.5l-276 -276q-39 -39 -70.5 -81t-53.5 -94.5t-33.5 -118
t-11.5 -152.5q0 -79 16 -169.5t35 -168.5t35.5 -131.5t18.5 -58.5q4 -11 12.5 -20t19.5 -12q5 -2 58.5 -18.5t131.5 -36t169 -35t170 -15.5q86 0 152 11.5t118 33.5t94 53t81 70l277 277q21 21 33 49t12 59t-12 59t-33 50l-199 198l76 76q7 7 11 16.5t4 19.5q0 11 -4 20
t-11 17l-15 15l410 409h234q31 0 59 11.5t50 33.5t33.5 50t11.5 59t-11.5 59t-33.5 49v0zM973 1054l183 -184l-328 -328q-15 -15 -33.5 -22.5t-39.5 -7.5q-20 0 -39 7.5t-33 22.5l-39 38q-30 30 -30 72.5t30 72.5l329 329v0zM1315 487q15 -15 15 -36t-15 -36l-276 -276
q-34 -34 -68.5 -60t-77.5 -43.5t-98 -26.5t-129 -9q-61 0 -131.5 11t-136.5 26t-120.5 30.5t-83.5 24.5q-8 28 -23.5 82.5t-30.5 120.5t-26.5 137t-11.5 131q0 74 9 129t27 98t43.5 78t59.5 69l276 276q15 15 36.5 15t36.5 -15l198 -199l-216 -216q-30 -30 -45 -68
t-15 -77.5t15 -77t45 -67.5l38 -39q29 -29 66.5 -44.5t78.5 -15.5t78.5 15.5t66.5 44.5l217 217l198 -199v0zM1096 1075l389 389l81 -82l-388 -388l-82 81v0zM1931 1449q-8 -8 -17 -11.5t-20 -3.5h-234l-124 123v235q0 10 4 19.5t11 16.5t16.5 11t19.5 4t19.5 -4t16.5 -11
l308 -307q7 -7 11 -16.5t4 -19.5t-4 -19.5t-11 -16.5v0z" />
    <glyph glyph-name="uniE67C" unicode="pickaxe" 
d="M2045 238q-1 20 -10 39t-25 32l-248 209q-16 13 -37.5 32.5t-36.5 33.5l-553 530l28 27q7 8 11 17t4 20q0 10 -4 19.5t-11 16.5l-37 37q191 177 337.5 292t246.5 182.5t152 94.5t53 27q16 8 24.5 24t5.5 34q-4 18 -18 29.5t-33 11.5q-78 0 -156 -6.5t-155 -19.5
t-152.5 -32t-149.5 -44q-66 -22 -130 -49.5t-126 -59.5t-121.5 -68.5t-115.5 -77.5l-35 34q-15 15 -36 15t-36 -15l-39 -38l-58 55q-30 29 -72.5 28.5t-71.5 -30.5l-133 -132q-29 -30 -29.5 -72.5t28.5 -72.5l55 -57l-39 -39q-15 -15 -15 -36t15 -36l35 -35
q-41 -57 -77.5 -116.5t-68.5 -121t-59.5 -126t-50.5 -130.5q-25 -73 -44 -148.5t-31.5 -152.5t-19 -155t-6.5 -157q0 -18 11.5 -32t29.5 -18q2 0 5 -0.5t5 -0.5q15 0 28 8.5t19 22.5q1 1 27.5 53t94 152t183 246.5t292.5 337.5l37 -37q7 -7 16.5 -11t19.5 -4t19.5 4t16.5 11
l28 28l529 -553q14 -15 33.5 -37t32.5 -37l210 -248q13 -16 31.5 -25.5t39.5 -9.5q1 0 2 -0.5t2 -0.5q19 0 37 8t32 22l235 234q15 15 22.5 34.5t6.5 39.5v0zM380 1432q-1 0 -1 0.5t1 1.5l132 132h0.5h1.5l56 -54l-137 -136l-53 56v0zM730 930q-7 7 -17 11t-20 4
q-10 -1 -19.5 -5t-16.5 -12q-106 -111 -190.5 -209t-151 -181t-116 -152t-84.5 -123q13 118 42.5 232.5t73.5 224t102.5 213t131.5 199.5q12 15 10.5 34.5t-15.5 32.5l-29 30l286 286l29 -30q14 -13 33 -14.5t35 10.5q96 72 199.5 131t212.5 103t223.5 73t232.5 43
q-53 -36 -122 -85.5t-152.5 -116t-181 -151t-209.5 -189.5q-7 -7 -11.5 -16.5t-4.5 -19.5q0 -11 4 -20.5t11 -16.5l38 -38l-286 -286l-38 38v0zM1712 5l-206 245q-14 17 -35 40t-36 38l-531 555l158 158l555 -531q16 -15 39 -35.5t40 -34.5l244 -206l-228 -229v0z" />
    <glyph glyph-name="uniE67D" unicode="build" 
d="M1894 -102h-1740q-32 0 -59.5 12t-48.5 34t-30.5 51t-7.5 60l87 1127q1 20 16 33.5t35 13.5h212q20 0 34.5 -13t16.5 -32l93 -741l444 267q12 7 26 7t26 -7t19 -19t7 -25v-217l434 261q12 7 26 7t26 -7t19 -19t7 -25v-217l434 261q12 7 26 7t26 -7t19 -19t7 -25v-615
q0 -63 -45 -108t-109 -45v0zM193 1126l-83 -1079q-1 -10 2 -18.5t9 -14.5q6 -7 14.5 -10.5t18.5 -3.5h1740q22 0 37 15t15 36v524l-435 -261q-12 -7 -25.5 -7t-25.5 7t-19 19t-7 25v217l-435 -261q-12 -7 -25.5 -7t-25.5 7t-19 19t-7 25v217l-435 -261q-11 -6 -24 -6.5
t-25 4.5q-11 6 -18.5 16.5t-9.5 23.5l-97 774h-120v0zM256 1331q-64 0 -109 45t-45 109q0 63 45 108t109 45t109 -45t45 -108q0 -64 -45 -109t-109 -45v0zM256 1536q-21 0 -36 -15t-15 -36t15 -36t36 -15t36 15t15 36t-15 36t-36 15v0zM614 1536q-86 0 -145 44.5t-59 109.5
q0 64 59 108.5t145 44.5q87 0 146 -44.5t59 -108.5q0 -65 -59 -109.5t-146 -44.5v0zM614 1741q-46 0 -74 -18t-28 -33q0 -16 28 -34t74 -18q47 0 75 18t28 34q0 15 -28 33t-75 18v0zM1229 1536q-65 0 -121 16t-97.5 43.5t-65 65t-23.5 80.5t23.5 80.5t65 65t97.5 43.5
t121 16q64 0 120.5 -16t97.5 -43.5t65 -65t24 -80.5t-24 -80.5t-65 -65t-97.5 -43.5t-120.5 -16v0zM1229 1843q-88 0 -146.5 -33t-58.5 -69t58.5 -69.5t146.5 -33.5t146.5 33.5t58.5 69.5t-58.5 69t-146.5 33v0z" />
    <glyph glyph-name="uniE67E" unicode="build&#x32;" 
d="M1894 -102h-1740q-32 0 -59.5 12t-48.5 34t-30.5 51t-7.5 60l87 1127q1 20 16 33.5t35 13.5h212q20 0 34.5 -13t16.5 -32l93 -741l444 267q12 7 26 7t26 -7t19 -19t7 -25v-217l434 261q12 7 26 7t26 -7t19 -19t7 -25v-217l434 261q12 7 26 7t26 -7t19 -19t7 -25v-615
q0 -63 -45 -108t-109 -45v0zM193 1126l-83 -1079q-1 -10 2 -18.5t9 -14.5q6 -7 14.5 -10.5t18.5 -3.5h1740q22 0 37 15t15 36v524l-435 -261q-12 -7 -25.5 -7t-25.5 7t-19 19t-7 25v217l-435 -261q-12 -7 -25.5 -7t-25.5 7t-19 19t-7 25v217l-435 -261q-11 -6 -24 -6.5
t-25 4.5q-11 6 -18.5 16.5t-9.5 23.5l-97 774h-120v0zM256 1331q-21 0 -36 15t-15 36q0 117 44 219.5t120.5 179t179.5 121t219 44.5q46 0 91 -7.5t87.5 -21.5t82.5 -35t77 -49q17 -13 20 -34t-10 -38t-34 -20t-38 10q-60 45 -130.5 68.5t-145.5 23.5q-95 0 -179 -36
t-146.5 -98.5t-99 -146.5t-36.5 -180q0 -21 -15 -36t-36 -15v0zM1587 1434q-46 0 -90.5 7t-87.5 21.5t-83 35.5t-77 48q-17 13 -20 34t10 38t34 20t38 -10q60 -45 130.5 -68.5t145.5 -23.5q55 0 107 12.5t99 35.5t88 57.5t74 77.5q13 17 34 20t38 -10t20 -34t-10 -38
q-39 -51 -88.5 -92.5t-106.5 -69.5q-59 -31 -123 -46t-132 -15v0z" />
    <glyph glyph-name="uniE67F" unicode="recycle" 
d="M1075 0q-14 0 -26.5 7.5t-19.5 20.5l-102 205q-6 12 -5.5 25.5t7.5 24.5t18.5 17.5t25.5 6.5h409q55 0 101.5 9t85 25.5t68 41.5t48.5 57q18 32 25.5 69.5t3.5 79t-19 87t-41 92.5l-100 180q-10 18 -4.5 38.5t24.5 31.5q18 10 38.5 4t30.5 -24l100 -180q33 -59 51.5 -117
t22.5 -113q4 -56 -7 -106t-37 -94t-64.5 -78t-89.5 -58q-50 -23 -109.5 -35t-127.5 -12h-326l65 -131q9 -19 2.5 -39t-25.5 -30q-5 -2 -11 -3.5t-12 -1.5v0zM1485 1126q-14 0 -26 7.5t-19 19.5l-214 384q-26 47 -55.5 83.5t-62 61.5t-66.5 37.5t-69 12.5t-69.5 -12.5
t-66.5 -37.5t-62 -61.5t-56 -83.5l-100 -179q-10 -19 -30.5 -25t-38.5 5q-19 10 -24.5 30.5t4.5 38.5l100 180q33 60 72 106t82.5 77.5t91 48t97.5 16.5v0v0q49 0 96.5 -16.5t91 -48t83 -77.5t72.5 -106l166 -300l59 118q10 19 30 26t39 -3q19 -9 25.5 -29.5t-2.5 -38.5
l-102 -205q-7 -13 -19 -20.5t-26 -8.5h-0.5h-0.5v0zM768 205h-205q-67 0 -126.5 12t-110.5 35q-50 24 -88.5 58t-64.5 78t-37 94t-7 106q4 55 22.5 113t50.5 117l172 308h-118q-21 0 -36 15t-15 37q0 21 15 36t36 15h205q13 0 25 -7t19 -18q7 -12 7 -25.5t-6 -25.5
l-214 -385q-26 -47 -41.5 -92.5t-19.5 -87t3.5 -79t26.5 -69.5t48 -57t67.5 -41.5t85.5 -25.5t101 -9h205q21 0 36 -15t15 -36t-15 -36t-36 -15v0z" />
    <glyph glyph-name="uniE680" unicode="bin" 
d="M1894 1741h-588l-139 184q-7 10 -18 15.5t-23 5.5h-204q-12 0 -23 -5.5t-18 -15.5l-139 -184h-588q-22 0 -37 -15t-15 -36q0 -22 15 -37t37 -15h1740q22 0 37 15t15 37q0 21 -15 36t-37 15v0zM947 1843h154l77 -102h-308l77 102v0zM1800 1535q-20 4 -37.5 -8.5
t-21.5 -33.5l-239 -1435q-4 -23 -24.5 -40.5t-43.5 -17.5h-820q-23 0 -43.5 17.5t-24.5 40.5l-239 1435q-4 21 -21 33.5t-38 8.5q-21 -3 -33.5 -20.5t-9.5 -38.5l240 -1435q10 -60 59 -101.5t110 -41.5h820q61 0 110 41.5t59 101.5l240 1435q3 21 -9.5 38.5t-33.5 20.5v0z
" />
    <glyph glyph-name="uniE681" unicode="bin&#x32;" 
d="M1587 1741h-358v51q0 64 -45 109t-109 45h-205q-63 0 -108 -45t-45 -109v-51h-359q-63 0 -108 -45t-45 -109v-102q0 -50 29 -89.5t73 -55.5v-1289q0 -63 45 -108t109 -45h1024q63 0 108 45t45 108v1289q45 16 74 55.5t29 89.5v102q0 64 -45 109t-109 45v0zM819 1792
q0 21 15 36t36 15h205q21 0 36 -15t15 -36v-51h-307v51v0zM1485 0h-1024q-21 0 -36 15t-15 36v1280h1126v-1280q0 -21 -15 -36t-36 -15v0zM1638 1485q0 -21 -15 -36t-36 -15h-1229q-21 0 -36 15t-15 36v102q0 21 15 36t36 15h1229q21 0 36 -15t15 -36v-102v0zM1280 1229
q-21 0 -36 -15t-15 -36v-1024q0 -22 15 -37t36 -15t36 15t15 37v1024q0 21 -15 36t-36 15v0zM973 1229q-21 0 -36 -15t-15 -36v-1024q0 -22 15 -37t36 -15t36 15t15 37v1024q0 21 -15 36t-36 15v0zM666 1229q-22 0 -37 -15t-15 -36v-1024q0 -22 15 -37t37 -15q21 0 36 15
t15 37v1024q0 21 -15 36t-36 15v0z" />
    <glyph glyph-name="uniE682" unicode="bin&#x33;" 
d="M1178 1638q-22 0 -37 15t-15 37v102q0 21 -15 36t-36 15h-205q-21 0 -36 -15t-15 -36v-102q0 -22 -15 -37t-36 -15t-36 15t-15 37v102q0 64 45 109t108 45h205q64 0 109 -45t45 -109v-102q0 -22 -15 -37t-36 -15v0zM1793 1670q-22 25 -53 46.5t-71 39.5q-34 14 -74.5 26
t-88.5 21.5t-103.5 17t-118.5 12.5q-21 1 -37 -12.5t-18 -34.5t12 -37.5t35 -17.5q58 -5 109.5 -11.5t95.5 -15t81 -19.5t66 -23q13 -6 24 -11.5t20 -11.5q-44 -21 -113 -39.5t-158.5 -32.5t-197.5 -22.5t-230 -8.5q-124 0 -232 8.5t-197.5 22.5t-158.5 33t-113 39
q9 6 20.5 12t24.5 12q30 12 66.5 22.5t81 19t95.5 15t109 11.5q22 2 35.5 18t12.5 37q-2 21 -18 35t-37 12q-64 -5 -119 -12t-103 -16.5t-88.5 -21.5t-74.5 -26q-40 -18 -71.5 -39t-52.5 -46q-25 -29 -38 -63t-13 -71v-258q0 -38 26 -70.5t77 -60.5v-995q0 -24 15 -57
t64 -66q30 -20 72.5 -38t95.5 -33q52 -15 112.5 -27t126.5 -19.5t137 -11.5t145 -4q73 0 144 4t137.5 11.5t126.5 19.5t113 27t95 33t73 38q49 33 64 66t15 57v995q51 28 76.5 60.5t25.5 70.5v256q0 38 -12.5 71.5t-37.5 62.5v0zM1638 154q0 -9 -33.5 -37.5t-138.5 -58.5
q-50 -14 -106.5 -25t-119 -18t-130 -11t-137.5 -4t-137.5 4t-130 11t-119.5 18t-106 25q-106 30 -139.5 58.5t-33.5 37.5v953q17 -6 35.5 -11.5t38.5 -9.5q60 -15 128.5 -26.5t143.5 -19.5t155.5 -12t164.5 -4q83 0 164 4t156 12t143.5 19.5t127.5 26.5q20 4 38.5 9.5
t35.5 11.5v-953v0zM1741 1280q0 -2 -7.5 -11.5t-31.5 -24.5q-28 -16 -69 -31t-93 -28q-57 -14 -122.5 -25t-137.5 -18.5t-149.5 -11.5t-157.5 -4q-81 0 -158.5 4t-149.5 11.5t-137.5 18.5t-121.5 25q-52 13 -93.5 28t-68.5 31q-24 15 -31.5 24.5t-7.5 11.5v258q0 4 0.5 9
t1.5 11q56 -30 127.5 -50t133.5 -32q55 -10 114.5 -18t123.5 -13.5t131 -8t136 -2.5q125 0 240 8.5t214 24.5t178.5 39t133.5 52q1 -6 1.5 -11.5t0.5 -10.5v-256v0zM1485 164q-21 0 -36 15t-15 36v717q0 21 15 36t36 15t36 -15t15 -36v-717q0 -21 -15 -36t-36 -15v0z
M1280 122q-21 0 -36 15t-15 36v717q0 21 15 36t36 15t36 -15t15 -36v-717q0 -21 -15 -36t-36 -15v0zM1075 102q-21 0 -36 15t-15 37v716q0 22 15 37t36 15t36 -15t15 -37v-716q0 -22 -15 -37t-36 -15v0zM870 102q-21 0 -36 15t-15 37v716q0 22 15 37t36 15q22 0 37 -15
t15 -37v-716q0 -22 -15 -37t-37 -15v0zM666 122v0v0q-22 0 -37 15t-15 36v717q0 21 15 36t37 15v0v0q21 0 36 -15t15 -36v-717q0 -21 -15 -36t-36 -15v0zM461 164v0v0q-21 0 -36 15t-15 36v717q0 21 15 36t36 15v0v0q21 0 36 -15t15 -36v-717q0 -21 -15 -36t-36 -15v0z" />
    <glyph glyph-name="uniE683" unicode="broom" 
d="M1999 1888l-9 9q-21 21 -49.5 32.5t-58.5 11.5q-31 0 -59 -11.5t-50 -32.5l-544 -545l-15 15q-15 15 -36.5 15t-36.5 -15l-117 -117q-38 37 -90 58t-108 21q-48 0 -93 -15.5t-81 -43.5q-1 -1 -56 -42t-143 -97.5t-197.5 -115.5t-220.5 -96q-16 -5 -25.5 -18.5t-9.5 -30.5
q0 -97 18.5 -191t55 -181t89.5 -167t122 -148q69 -69 148.5 -122.5t167 -89.5t181 -54.5t191.5 -18.5q16 0 29.5 9.5t18.5 25.5q37 110 96 220t115.5 197.5t98 143t41.5 56.5q32 40 46.5 89.5t12 100t-22.5 98t-56 84.5l118 117q15 15 15 36t-15 36l-15 15l544 545
q45 45 45 108.5t-45 108.5v0zM826 1226q37 0 70 -13t57 -37l35 -35v0v0l290 -290q46 -46 50 -116.5t-36 -121.5q-1 -1 -5.5 -7t-12.5 -16l-581 582q9 7 15 12t8 6q22 17 50.5 26.5t59.5 9.5v0zM937 1q-57 2 -112.5 11.5t-107.5 26.5q37 71 87 140t95.5 123.5t77 88
t32.5 34.5q15 15 15 36t-15 36t-36 15t-36 -15q-4 -3 -39 -40t-83.5 -95.5t-102 -133.5t-92.5 -153q-62 27 -118.5 64t-106.5 81l307 307q15 15 15 36t-15 36t-36.5 15t-36.5 -15l-306 -306q-45 50 -81.5 106.5t-64.5 118.5q79 39 153.5 92t133 102t95.5 84t40 38
q15 15 15 36.5t-15 36.5t-36 15t-36 -15q-1 -1 -34.5 -33t-87.5 -77t-123 -95.5t-141 -87.5q-16 53 -26 108t-12 112q73 27 145 62.5t137.5 73t122.5 74.5t101 67l604 -605q-30 -44 -67 -101t-74.5 -122.5t-72.5 -137t-62 -144.5v0zM1280 994l-184 184l82 81l183 -184
l-81 -81v0zM1927 1743l-545 -544l-81 81l544 544q8 7 17 11t20 4q10 0 19.5 -4t16.5 -11l9 -9q15 -15 15 -36t-15 -36v0z" />
    <glyph glyph-name="uniE684" unicode="game" 
d="M973 -102q-98 0 -191.5 18.5t-181 54.5t-167 89.5t-148.5 122.5q-69 68 -122 148t-89.5 167t-55 181t-18.5 191q0 98 18.5 191.5t55 181t89.5 167t122 148.5t148.5 122t167 89.5t181 55t191.5 18.5q68 0 135 -9.5t132 -27.5t126.5 -45.5t119.5 -63.5q56 -35 106.5 -76.5
t95 -89.5t82 -102t67.5 -112q5 -10 6 -20t-2 -20q-3 -9 -9.5 -17t-16.5 -12l-731 -378l731 -377q10 -4 16.5 -12t9.5 -18q3 -9 2 -19.5t-6 -19.5q-30 -58 -67.5 -112t-82 -102t-95 -89.5t-106.5 -76.5q-58 -36 -119.5 -63.5t-126.5 -46t-132 -27.5t-135 -9v0zM973 1741
q-180 0 -338.5 -68.5t-277 -187t-187 -277t-68.5 -338.5t68.5 -338.5t187 -276.5t277 -186.5t338.5 -68.5q116 0 225.5 29.5t206 84.5t177.5 134t140 178l-773 399q-12 6 -19.5 18.5t-7.5 26.5q0 15 7.5 27t19.5 19l773 398q-59 99 -140 178.5t-177.5 134.5t-206 84.5
t-225.5 29.5v0zM1178 1229q-64 0 -109 45t-45 108q0 64 45 109t109 45q63 0 108 -45t45 -109q0 -63 -45 -108t-108 -45v0zM1178 1434q-22 0 -37 -15t-15 -37q0 -21 15 -36t37 -15q21 0 36 15t15 36q0 22 -15 37t-36 15v0z" />
    <glyph glyph-name="uniE685" unicode="gamepad" 
d="M1536 410q-41 0 -82 6.5t-80 19.5t-75.5 32t-69.5 44h-410q-33 -25 -69.5 -44t-75.5 -32t-80 -19.5t-82 -6.5q-106 0 -199 40t-162.5 109.5t-110 163t-40.5 199.5q0 105 40.5 198.5t110 163t162.5 110t199 40.5h1024q106 0 199 -40.5t162.5 -110t110 -163t40.5 -198.5
q0 -106 -40.5 -199.5t-110 -163t-162.5 -109.5t-199 -40v0zM1246 614q9 0 17.5 -2.5t15.5 -8.5q55 -45 120.5 -68t136.5 -23q85 0 159.5 32t130 88t88 130.5t32.5 159.5q0 84 -32.5 158.5t-88 130.5t-130 88t-159.5 32h-1024q-85 0 -159.5 -32t-130 -88t-88 -130.5
t-32.5 -158.5q0 -85 32.5 -159.5t88 -130.5t130 -88t159.5 -32q71 0 136.5 23t120.5 68q7 6 15.5 8.5t17.5 2.5h444v0zM768 1024h-154v154q0 21 -15 36t-36 15t-36 -15t-15 -36v-154h-154q-21 0 -36 -15t-15 -36t15 -36t36 -15h154v-154q0 -21 15 -36t36 -15t36 15t15 36
v154h154q21 0 36 15t15 36t-15 36t-36 15v0zM1382 922q-63 0 -108 45t-45 108q0 64 45 109t108 45q64 0 109 -45t45 -109q0 -63 -45 -108t-109 -45v0zM1382 1126q-21 0 -36 -15t-15 -36t15 -36t36 -15q22 0 37 15t15 36t-15 36t-37 15v0zM1690 717q-64 0 -109 45t-45 108
q0 64 45 109t109 45q63 0 108 -45t45 -109q0 -63 -45 -108t-108 -45v0zM1690 922q-22 0 -37 -15t-15 -37q0 -21 15 -36t37 -15q21 0 36 15t15 36q0 22 -15 37t-36 15v0z" />
    <glyph glyph-name="uniE686" unicode="game&#x33;" 
d="M1331 1587q0 74 -28 139.5t-77 114t-114 77t-139 28.5t-139.5 -28.5t-114 -77t-77 -114t-28.5 -139.5q0 -67 24 -127.5t65 -108t97.5 -78.5t121.5 -41v-464q0 -21 15 -36t36 -15t36 15t15 36v464q65 10 121 41t97.5 78.5t65 108t23.5 127.5v0zM973 1331q-53 0 -99.5 20
t-81.5 55t-55 81.5t-20 99.5t20 99.5t55 81.5t81.5 55t99.5 20t99.5 -20t81.5 -55t55 -81.5t20 -99.5t-20 -99.5t-55 -81.5t-81.5 -55t-99.5 -20v0zM922 1690q0 -22 -15 -37t-37 -15q-21 0 -36 15t-15 37q0 21 15 36t36 15q22 0 37 -15t15 -36v0zM973 512q-49 0 -94.5 14.5
t-81.5 40.5q-38 29 -59 68t-21 82q0 40 18 76.5t52 64.5q17 14 38 12t34 -18q14 -16 12 -37t-18 -35q-12 -10 -23 -26t-11 -37q0 -42 45.5 -72.5t108.5 -30.5q62 0 107.5 30.5t45.5 72.5q0 21 -11 37t-22 26q-17 14 -18.5 35t11.5 37q14 16 35 18t37 -12q34 -28 52.5 -64.5
t18.5 -76.5q0 -43 -21 -82t-60 -68q-35 -26 -80.5 -40.5t-94.5 -14.5v0zM1826 808l-626 313q-18 9 -38.5 2.5t-29.5 -25.5q-10 -19 -3 -39t26 -30l625 -312q6 -3 12.5 -8t12.5 -11l-767 -424q-26 -15 -65.5 -15t-64.5 15l-767 424q5 6 11.5 11t13.5 8l625 312q19 10 25.5 30
t-2.5 39q-10 19 -30 25.5t-39 -2.5l-625 -313q-51 -25 -85.5 -81t-34.5 -113v-51q0 -56 32.5 -113t81.5 -85l745 -434q24 -14 53.5 -21t60.5 -7t60.5 7t53.5 21l745 434q48 28 81 85t33 113v51q0 57 -35 113t-85 81v0zM1780 453l-745 -434q-24 -14 -62 -14t-63 14l-745 434
q-24 15 -43.5 48.5t-19.5 61.5v39l756 -418q25 -14 54.5 -20.5t60.5 -6.5q30 0 60 6.5t54 20.5l756 418v-39q0 -28 -19 -61.5t-44 -48.5v0z" />
    <glyph glyph-name="uniE687" unicode="dice" 
d="M563 307q-63 0 -108 45t-45 109q0 63 45 108t108 45q64 0 109 -45t45 -108q0 -64 -45 -109t-109 -45v0zM563 512q-21 0 -36 -15t-15 -36t15 -36t36 -15t36 15t15 36t-15 36t-36 15v0zM563 717q-63 0 -108 45t-45 108q0 64 45 109t108 45q64 0 109 -45t45 -109
q0 -63 -45 -108t-109 -45v0zM563 922q-21 0 -36 -15t-15 -37q0 -21 15 -36t36 -15t36 15t15 36q0 22 -15 37t-36 15v0zM563 1126q-63 0 -108 45t-45 109t45 109t108 45q64 0 109 -45t45 -109t-45 -109t-109 -45v0zM563 1331q-21 0 -36 -15t-15 -36t15 -36t36 -15t36 15
t15 36t-15 36t-36 15v0zM1382 1126q-63 0 -108 45t-45 109t45 109t108 45q64 0 109 -45t45 -109t-45 -109t-109 -45v0zM1382 1331q-21 0 -36 -15t-15 -36t15 -36t36 -15q22 0 37 15t15 36t-15 36t-37 15v0zM1382 717q-63 0 -108 45t-45 108q0 64 45 109t108 45q64 0 109 -45
t45 -109q0 -63 -45 -108t-109 -45v0zM1382 922q-21 0 -36 -15t-15 -37q0 -21 15 -36t36 -15q22 0 37 15t15 36q0 22 -15 37t-37 15v0zM1382 307q-63 0 -108 45t-45 109q0 63 45 108t108 45q64 0 109 -45t45 -108q0 -64 -45 -109t-109 -45v0zM1382 512q-21 0 -36 -15t-15 -36
t15 -36t36 -15q22 0 37 15t15 36t-15 36t-37 15v0zM1587 0h-1229q-53 0 -99.5 20t-81 55t-55 81.5t-20.5 99.5v1229q0 53 20.5 99.5t55 81.5t81 55t99.5 20h1229q53 0 99.5 -20t81.5 -55t55 -81.5t20 -99.5v-1229q0 -53 -20 -99.5t-55 -81.5t-81.5 -55t-99.5 -20v0z
M358 1638q-63 0 -108 -45t-45 -108v-1229q0 -64 45 -109t108 -45h1229q64 0 109 45t45 109v1229q0 63 -45 108t-109 45h-1229v0z" />
    <glyph glyph-name="uniE688" unicode="cards" 
d="M1382 -102h-819q-18 0 -32 11t-18 28t3.5 33.5t23.5 24.5q43 21 80 48.5t67 61t54 72.5t42 83q3 8 5.5 15t4.5 14q-62 -41 -133.5 -62.5t-147.5 -21.5q-106 0 -199 40t-162.5 109.5t-110 163t-40.5 199.5q0 53 10 104t30.5 99.5t51 95.5t72.5 92q35 38 75 73.5t83 69
t88 65t89 62.5q82 57 158 113t135 118t94.5 132t35.5 153q0 22 15 37t36 15t36 -15t15 -37q0 -83 35.5 -153t94.5 -132t135 -118t157 -113q45 -31 90 -62.5t88 -65t83 -69t75 -73.5q41 -45 72 -92t51 -95.5t30.5 -99.5t10.5 -104q0 -106 -40.5 -199.5t-110 -163t-163 -109.5
t-198.5 -40q-76 0 -148 21.5t-133 62.5q2 -7 4.5 -14t5.5 -15q17 -44 41 -83t54.5 -72.5t67 -61t79.5 -48.5q16 -8 23.5 -24.5t3.5 -33.5t-18 -28t-32 -11v0zM727 0h491q-50 46 -88.5 103.5t-63.5 123.5q-31 81 -36.5 139t-5.5 61q0 16 9.5 29.5t24.5 18.5q15 6 31 1.5
t26 -17.5q29 -36 65 -64.5t77 -47.5t85.5 -29.5t91.5 -10.5q84 0 158.5 32.5t130.5 88t88 130t32 159.5q0 98 -38 177.5t-101.5 148t-145.5 129.5t-170 122q-62 43 -123 87t-115.5 91.5t-100 100t-76.5 111.5q-31 -59 -76.5 -111.5t-100.5 -100t-116 -91.5t-122 -87
q-88 -61 -170 -122t-145.5 -129.5t-102 -148t-38.5 -177.5q0 -85 32.5 -159.5t88 -130t130 -88t159.5 -32.5q47 0 91.5 10.5t85 29.5t76.5 47.5t66 64.5q10 13 25.5 17.5t31.5 -1.5q15 -5 24.5 -18.5t9.5 -29.5q0 -3 -5.5 -61t-36.5 -139q-26 -66 -64.5 -123.5t-88.5 -103.5
v0z" />
    <glyph glyph-name="uniE689" unicode="cards&#x32;" 
d="M973 -102q-12 0 -22.5 5t-18.5 14l-716 922q-11 14 -11 31.5t11 31.5l716 921q8 10 18.5 15t22.5 5t22.5 -5t17.5 -15l717 -921q11 -14 11 -31.5t-11 -31.5l-717 -922q-7 -9 -17.5 -14t-22.5 -5v0zM321 870l652 -838l652 838l-652 839l-652 -839v0z" />
    <glyph glyph-name="uniE68A" unicode="cards&#x33;" 
d="M1382 -102h-819q-18 0 -32 11t-18 28t3.5 33.5t23.5 24.5q57 28 99.5 64t72.5 75t49.5 79t31.5 76q-62 -41 -133.5 -62.5t-147.5 -21.5q-106 0 -199 40t-162.5 109.5t-110 163t-40.5 199.5q0 50 9.5 99t28.5 94.5t46 87.5t63 78q29 29 62 53.5t69.5 43t75 31t79.5 19.5
q-12 38 -17.5 78t-5.5 81q0 117 44 219.5t120.5 179t179 121t219.5 44.5q116 0 218.5 -44.5t179 -121t121 -179t44.5 -219.5q0 -41 -6 -81t-17 -78q41 -7 79.5 -19.5t74.5 -31t69 -43t63 -53.5q35 -36 62.5 -78t46 -87.5t28.5 -94.5t10 -99q0 -106 -40.5 -199.5t-110 -163
t-163 -109.5t-198.5 -40q-76 0 -148 21.5t-133 62.5q2 -7 4.5 -14t5.5 -15q17 -44 41 -83t54.5 -72.5t67 -61t79.5 -48.5q16 -8 23.5 -24.5t3.5 -33.5t-18 -28t-32 -11v0zM727 0h491q-50 46 -88.5 103.5t-63.5 123.5q-31 81 -36.5 139t-5.5 61q0 16 9.5 29.5t24.5 18.5
q15 6 31 1.5t26 -17.5q29 -36 65 -64.5t77 -47.5t85.5 -29.5t91.5 -10.5q84 0 158.5 32.5t130.5 88t88 130t32 159.5q0 83 -31.5 157t-86 129.5t-128 88.5t-156.5 34q-13 1 -24 7t-18 17t-8 23.5t4 24.5q19 44 29 90t10 94q0 96 -36.5 180t-99 146.5t-146.5 98.5t-179 36
t-179 -36t-146.5 -98.5t-99 -146.5t-36.5 -180q0 -48 9.5 -94t28.5 -90q6 -12 5 -24.5t-8 -23.5t-18.5 -17t-24.5 -7q-83 -1 -156 -34t-127.5 -88.5t-86.5 -129.5t-32 -157q0 -85 32.5 -159.5t88 -130t130 -88t159.5 -32.5q47 0 91.5 10.5t85 29.5t76.5 47.5t66 64.5
q10 13 25.5 17.5t30.5 -1.5q16 -5 25.5 -18.5t9.5 -29.5q0 -3 -5.5 -61t-36.5 -139q-26 -66 -64.5 -123.5t-88.5 -103.5v0z" />
    <glyph glyph-name="uniE68B" unicode="cards&#x34;" 
d="M973 0q-21 0 -36 15t-15 36q0 84 -35.5 154t-94.5 131.5t-135 118t-158 112.5q-44 31 -89 63t-88 65t-83 68.5t-75 74.5q-42 45 -72.5 91.5t-51 95.5t-30.5 99.5t-10 104.5q0 106 40.5 199t110 162.5t162.5 110t199 40.5q76 0 146 -21t129.5 -59.5t107 -91.5t78.5 -117
q31 64 78.5 117t107 91.5t129.5 59.5t146 21q51 0 100.5 -10t95.5 -29t87.5 -46.5t78.5 -64.5q36 -36 64 -77.5t47 -88t29 -96t10 -100.5q0 -54 -10.5 -104.5t-30.5 -99.5t-51 -95.5t-72 -91.5q-35 -39 -75 -74.5t-83 -68.5t-88 -65t-90 -63q-81 -56 -157 -112.5t-135 -118
t-94.5 -131.5t-35.5 -154q0 -21 -15 -36t-36 -15v0zM512 1638q-85 0 -159.5 -32t-130 -87.5t-88 -130.5t-32.5 -159q0 -98 38.5 -178t102 -148.5t145.5 -129.5t170 -122q61 -42 122 -86t116 -91.5t100.5 -100t76.5 -112.5q31 60 76.5 112.5t100 100t115.5 91.5t123 86
q88 61 170 122t145.5 129.5t101.5 148.5t38 178q0 84 -32 159t-88 130.5t-130.5 87.5t-158.5 32q-85 0 -159.5 -32t-130.5 -87.5t-88 -130.5t-32 -159q0 -21 -15 -36t-36 -15t-36 15t-15 36q0 84 -32.5 159t-88 130.5t-130 87.5t-159.5 32v0z" />
    </font>
</defs>
</svg>
